Страшні історії / Tales of Terror (1962) 1080p Ukr/Eng | Sub Eng

Нові коментарі

Нова тема   Відповісти
Автор Повідомлення
MakRA 
VIP


З нами з: 11.11.18
Востаннє: 28.09.20
Повідомлень: 1120

2019-07-24 01:07  
Страшні історії / Tales of Terror (1962) 1080p Ukr/Eng | Sub Eng


Альтернативні постери:




Жанр: комедія, жахи, детектив
Країна: США



Кінокомпанія: Alta Vista Productions
Режисер: Роджер Корман [Roger Corman]
Актори: Вінсент Прайс [Vincent Price], Меггі Пірс [Maggie Pierce], Леона Гейдж [Leona Gage], Петер Лоррен [Peter Lorre], Джойс Джеймісон [Joyce Jameson], Безіл Ретбоун [Basil Rathbone], Дебра Пейдж [Debra Paget], Девід Френкхем [David Frankham], Ленні Вайнріб [Lennie Weinrib], Воллі Кампо [Wally Campo]

Сюжет:
Фільм жахів знятий за мотивами оповідань Едгара По.
Стрічка складається з трьох частин.
В першій з них під назвою «Морелла» дух померлої в молодості Морелли входить в її дочку для того, щоб помститись своєму чоловікові Локку ...

Друга історія називається «Чорний кіт». Щоб помститись своїй жінці за невірність, Монтрезор убиває її і замуровує в стіні разом з коханцем Фортунато. Але він не помічає того, що в імпровізовану могилу прослизнув кіт...

Третя розповідь має назву «Правда про те, що трапилося з містером Вальдемаром». Вальдемар перебуває у стані між життям і смертю. Кармайкл погоджується вивести його звідти при умові, що він покине свою дружину Гелен...



Тривалість: 01:28:42
Якість: 1080p
Відео:
кодек:
розмір кадру: 1920 х 816
бітрейт: 8166 кб/с

Аудіо # 1:
мова: українська
переклад: багатоголосий закадровий
кодек: 2.0
бітрейт: 192 кб/с

Аудіо # 2:
мова: англійська
переклад: оригінал
кодек: 1.0
бітрейт: 640 кб/с

Субтитри: (Full)
мова: англійська
тип: програмні (м'які)
формат: *.srt

Збережено оригінальні розділи, як на Blu-ray.
Info
General
Unique ID : 109634142934426531722970831051113891380 (0x527AC493D0692129164ED7F53A780634)
Complete name : E:\+Фільмографії-Вінсент Прайс [Vincent Price]\Tales of Terror (1962) 1080p UkrEng Sub Eng [Hurtom].
Format :
Format version : Version 4
File size : 5.57 GiB
Duration : 1 h 28 min
Overall bit rate : 8 998 kb/s
Movie name : Страшні історії / Tales of Terror (1962) 1080p Ukr/Eng | Sub Eng [Hurtom]
Encoded date : UTC 2019-07-23 20:57:43
Writing application : v25.0.0 ('Prog Noir') 64-bit
Writing library : libebml v1.3.6 + v1.4.9

Video
ID : 1
Format : AVC
Format/Info : Advanced Video Codec
Format profile : [email protected]
Format settings : CABAC / 5 Ref Frames
Format settings, CABAC : Yes
Format settings, Reference fra : 5 frames
Codec ID : V_MPEG4/ISO/AVC
Duration : 1 h 28 min
Bit rate : 8 166 kb/s
Width : 1 920 pixels
Height : 816 pixels
Display aspect ratio : 2.35:1
Frame rate mode : Constant
Frame rate : 23.976 (24000/1001) FPS
Original frame rate : 23.976 (23976/1000) FPS
Color space : YUV
Chroma subsampling : 4:2:0
Bit depth : 8 bits
Scan type : Progressive
Bits/(Pixel*Frame) : 0.217
Stream size : 5.06 GiB (91%)
Title : Tales of Terror (1962) 1080p Ukr/Eng | Sub Eng [Hurtom]
Writing library : core 144 r2525 40bb568
Encoding settings : cabac=1 / ref=5 / deblock=1:0:0 / analyse=0x3:0x133 / me=umh / subme=7 / psy=1 / psy_rd=1.00:0.00 / mixed_ref=1 / me_range=16 / chroma_me=1 / trellis=1 / 8x8dct=1 / cqm=0 / deadzone=21,11 / fast_pskip=0 / chroma_qp_offset=-2 / threads=12 / lookahead_threads=2 / sliced_threads=0 / nr=0 / decimate=1 / interlaced=0 / bluray_compat=0 / constrained_intra=0 / bframes=3 / b_pyramid=2 / b_adapt=2 / b_bias=0 / direct=3 / weightb=1 / open_gop=0 / weightp=2 / keyint=250 / keyint_min=23 / scenecut=40 / intra_refresh=0 / rc_lookahead=50 / rc=2pass / mbtree=1 / bitrate=8166 / ratetol=1.0 / qcomp=0.60 / qpmin=0 / qpmax=69 / qpstep=4 / cplxblur=20.0 / qblur=0.5 / ip_ratio=1.40 / aq=1:1.00
Language : Ukrainian
Default : Yes
Forced : Yes

Audio #1
ID : 2
Format : AC-3
Format/Info : Audio Coding 3
Commercial name : Dolby Digital
Codec ID : A_AC3
Duration : 1 h 28 min
Bit rate mode : Constant
Bit rate : 192 kb/s
Channel(s) : 2 channels
Channel layout : L R
Sampling rate : 48.0 kHz
Frame rate : 31.250 FPS (1536 SPF)
Bit depth : 16 bits
Compression mode : Lossy
Stream size : 122 MiB (2%)
Title : MVO [AMC] 2.0
Language : Ukrainian
Service kind : Complete Main
Default : Yes
Forced : Yes

Audio #2
ID : 3
Format : AC-3
Format/Info : Audio Coding 3
Commercial name : Dolby Digital
Codec ID : A_AC3
Duration : 1 h 28 min
Bit rate mode : Constant
Bit rate : 640 kb/s
Channel(s) : 1 channel
Channel layout : C
Sampling rate : 48.0 kHz
Frame rate : 31.250 FPS (1536 SPF)
Bit depth : 16 bits
Compression mode : Lossy
Stream size : 406 MiB (7%)
Title : Original 1.0
Language : English
Service kind : Complete Main
Default : No
Forced : No

Text
ID : 4
Format : UTF-8
Codec ID : S_TEXT/UTF8
Codec ID/Info : UTF-8 Plain Text
Duration : 1 h 25 min
Bit rate : 43 b/s
Count of elements : 865
Stream size : 27.0 KiB (0%)
Title : Eng (Full)
Language : English
Default : No
Forced : No

Menu
00:00:00.000 : en:00:00:00.000
00:06:22.966 : en:00:06:22.966
00:12:34.420 : en:00:12:34.420
00:23:05.175 : en:00:23:05.175
00:28:13.233 : en:00:28:13.233
00:36:53.711 : en:00:36:53.711
00:45:35.650 : en:00:45:35.650
00:52:36.362 : en:00:52:36.362
01:00:53.567 : en:01:00:53.567
01:09:58.653 : en:01:09:58.653
01:15:00.579 : en:01:15:00.579
01:18:36.545 : en:01:18:36.545
Скріншоти
Джерело: &
Подяка за запис з ТБ п. Sando7, за синхронізацію п. krigg070
Особиста оцінка: 8 - мені сподобалося


Срібний реліз (на рейтинг впливає 50% завантаженого)
 Трекер:    Зареєстрований   

Завантажити / скачати фільм українською



відео для новачків



 Зареєстрований:   2019-07-24 01:07
 Розмір:   5.57 GB 
 Оцінка фільму:   10/10 (Голосів: 6)
   
Інші релізи
   Страшні історії / Tales of Terror (1962) krigg070  2 / 0   1.11 GB   2017-07-30 20:51 
Ваш часовий пояс: GMT + 2 Години

Нова тема   Відповісти