Левіафан / Leviafan / Leviathan (2014) 1080p Ukr/Rus | Rus/Eng/Fre/Spa

Нові коментарі

Нова тема   Відповісти
Останній раз роздавалося smith347 (2019-11-16)
Автор Повідомлення
Anonymous 







2019-07-23 23:33  
Левіафан / Leviafan / Leviathan (2014) 1080p Ukr/Rus | Rus/Eng/Fre/Spa

Левіафан / Leviafan / Leviathan (2014) 1080p Ukr/Rus | Rus/Eng/Fre/Spa


Жанр: драма, кримінальний
Країна: Росія
Кінокомпанія: Non-Stop Productions, A Company Russia, Russian Ministry of Culture
Режисер: Андрій Звягінцев
Актори: Алєксєй Сєрєбряков, Єлєна Лядова, Владімір Вдовічєнков, Роман Мадянов, Анна Уколова, Алєксєй Розін, Сєргєй Походаєв, Платон Камєнєв, Сєргєй Бачурскій, Валєрій Грішко та інші

Сюжет:
Московський адвокат Дмітрій приїжджає в північну глибинку, щоб допомогти своєму старому армійському другові Ніколаю у судовому позові проти місцевої влади, яка хоче забрати землю і знести будинок, де живе головний герой...

Тривалість: 02:21:32
Якість:
Відео:
кодек:
розмір кадру: 1920 x 802
бітрейт: 13 364 кб/с

Аудіо # 1:
мова: українська
переклад: багатоголосий закадровий | DniproFilm
кодек: AC-3 5.1
бітрейт: 384 кб/с
Підтримати українське озвучення
Для студії DniproFilm дуже важлива популярність, чим популярнішою буде студія, тим більшу кількість українського озвучення до нових фільмів та серіалів в неї замовлятимуть. Тому прохання до не байдужих підписуватися на їх телеграм канал
Аудіо # 2:
мова: російська
переклад: оригінал
кодек: 5.1
бітрейт: 1510 кб/с

Субтитри # 1:
мова: російська (Full),
тип: програмні (м'які)
формат: *.srt

Субтитри # 2:
мова: англійська (Full),
тип: програмні (м'які)
формат: *.srt

Субтитри # 3:
мова: французька (Full),
тип: програмні (м'які)
формат: *.srt

Субтитри # 4:
мова: іспанська (Full),
тип: програмні (м'які)
формат: *.srt


Info
Код:
General
Unique ID                                : 301836917856513959975976407810598999553 (0xE313AD03FD951D4E09ABB29922E79601)
Complete name                            : Leviathan (2014) 1080p [UKR_RUS] [Hurtom].
Format                                   :
Format version                           : Version 4 / Version 2
File size                                : 15.1 GiB
Duration                                 : 2 h 21 min
Overall bit rate                         : 15.3 Mb/s
Movie name                               : Левіафан / Leviafan / Leviathan (2014)
Encoded date                             : UTC 2019-07-23 21:29:05
Writing application                      : v20.0.0 ('I Am The Sun') 64-bit
Writing library                          : libebml v1.3.5 + v1.4.8
Cover                                    : Yes
Attachments                              : Cover.jpg

Video
ID                                       : 1
Format                                   : AVC
Format/Info                              : Advanced Video Codec
Format profile                           : [email protected]
Format settings                          : CABAC / 5 Ref Frames
Format settings, CABAC                   : Yes
Format settings, ReFrames                : 5 frames
Codec ID                                 : V_MPEG4/ISO/AVC
Duration                                 : 2 h 21 min
Bit rate                                 : 13.4 Mb/s
Width                                    : 1 920 pixels
Height                                   : 802 pixels
Display aspect ratio                     : 2.40:1
Frame rate mode                          : Constant
Frame rate                               : 24.000 FPS
Color space                              : YUV
Chroma subsampling                       : 4:2:0
Bit depth                                : 8 bits
Scan type                                : Progressive
Bits/(Pixel*Frame)                       : 0.362
Stream size                              : 13.2 GiB (88%)
Title                                    : Левіафан / Leviafan / Leviathan (2014)
Writing library                          : core 148 r2744 b97ae06
Encoding settings                        : cabac=1 / ref=5 / deblock=1:-2:-2 / analyse=0x3:0x133 / me=umh / subme=11 / psy=1 / psy_rd=1.00:0.15 / mixed_ref=1 / me_range=32 / chroma_me=1 / trellis=2 / 8x8dct=1 / cqm=0 / deadzone=21,11 / fast_pskip=0 / chroma_qp_offset=-3 / threads=6 / lookahead_threads=1 / sliced_threads=0 / nr=0 / decimate=1 / interlaced=0 / bluray_compat=0 / constrained_intra=0 / bframes=16 / b_pyramid=2 / b_adapt=2 / b_bias=0 / direct=1 / weightb=1 / open_gop=0 / weightp=2 / keyint=240 / keyint_min=24 / scenecut=40 / intra_refresh=0 / rc_lookahead=160 / rc=crf / mbtree=1 / crf=17.0 / qcomp=0.80 / qpmin=0 / qpmax=69 / qpstep=4 / vbv_maxrate=50000 / vbv_bufsize=62500 / crf_max=0.0 / nal_hrd=none / filler=0 / ip_ratio=1.40 / aq=1:0.60
Default                                  : Yes
Forced                                   : No
Color range                              : Limited
Color primaries                          : BT.709
Transfer characteristics                 : BT.709
Matrix coefficients                      : BT.709

Audio #1
ID                                       : 2
Format                                   : AC-3
Format/Info                              : Audio Coding 3
Codec ID                                 : A_AC3
Duration                                 : 2 h 21 min
Bit rate mode                            : Constant
Bit rate                                 : 384 kb/s
Channel(s)                               : 6 channels
Channel positions                        : Front: L C R, Side: L R, LFE
Sampling rate                            : 48.0 kHz
Frame rate                               : 31.250 FPS (1536 SPF)
Bit depth                                : 16 bits
Compression mode                         : Lossy
Stream size                              : 389 MiB (3%)
Title                                    : / 5.1 Ch / 384 kbps / DniproFilm / БЗ
Language                                 : Ukrainian
Service kind                             : Complete Main
Default                                  : Yes
Forced                                   : Yes

Audio #2
ID                                       : 3
Format                                   :
Format/Info                              : Digital Theater Systems
Codec ID                                 : A_DTS
Duration                                 : 2 h 21 min
Bit rate mode                            : Constant
Bit rate                                 : 1 509 kb/s
Channel(s)                               : 6 channels
Channel positions                        : Front: L C R, Side: L R, LFE
Sampling rate                            : 48.0 kHz
Frame rate                               : 93.750 FPS (512 SPF)
Bit depth                                : 24 bits
Compression mode                         : Lossy
Stream size                              : 1.49 GiB (10%)
Title                                    : Original
Language                                 : Russian
Default                                  : No
Forced                                   : No

Text #1
ID                                       : 4
Format                                   : UTF-8
Codec ID                                 : S_TEXT/UTF8
Codec ID/Info                            : UTF-8 Plain Text
Duration                                 : 2 h 8 min
Bit rate                                 : 87 b/s
Count of elements                        : 1362
Stream size                              : 81.9 KiB (0%)
Title                                    : Full
Language                                 : Russian
Default                                  : No
Forced                                   : No

Text #2
ID                                       : 5
Format                                   : UTF-8
Codec ID                                 : S_TEXT/UTF8
Codec ID/Info                            : UTF-8 Plain Text
Duration                                 : 2 h 16 min
Bit rate                                 : 42 b/s
Count of elements                        : 1485
Stream size                              : 42.8 KiB (0%)
Title                                    : Full
Language                                 : English
Default                                  : No
Forced                                   : No

Text #3
ID                                       : 6
Format                                   : UTF-8
Codec ID                                 : S_TEXT/UTF8
Codec ID/Info                            : UTF-8 Plain Text
Duration                                 : 2 h 20 min
Bit rate                                 : 42 b/s
Count of elements                        : 1512
Stream size                              : 43.3 KiB (0%)
Title                                    : Full
Language                                 : French
Default                                  : No
Forced                                   : No

Text #4
ID                                       : 7
Format                                   : UTF-8
Codec ID                                 : S_TEXT/UTF8
Codec ID/Info                            : UTF-8 Plain Text
Duration                                 : 2 h 12 min
Bit rate                                 : 45 b/s
Count of elements                        : 1308
Stream size                              : 44.5 KiB (0%)
Title                                    : Full
Language                                 : Spanish
Default                                  : No
Forced                                   : No

Menu
00:00:00.000                             : en:00:00:00.000
00:09:38.000                             : en:00:09:38.000
00:21:47.417                             : en:00:21:47.417
00:35:36.750                             : en:00:35:36.750
00:46:08.625                             : en:00:46:08.625
00:56:54.625                             : en:00:56:54.625
01:10:03.292                             : en:01:10:03.292
01:21:38.750                             : en:01:21:38.750
01:32:56.833                             : en:01:32:56.833
01:42:07.542                             : en:01:42:07.542
01:55:00.417                             : en:01:55:00.417
02:05:44.000                             : en:02:05:44.000
02:16:08.542                             : en:02:16:08.542
Світлини




Джерело: &
Особиста оцінка: 0 - не дивився


Авторський реліз (завантажувати можна без реєстрації)
 Трекер:    Зареєстрований   

Завантажити / скачати фільм українською



відео для новачків



 Зареєстрований:   2019-07-23 23:33
 Розмір:   15.09 GB 
 Оцінка фільму:   3.4/10 (Голосів: 15)
   
Інші релізи
   Левіафан / Leviafan / Leviathan (2014) 1080p H.265 Ukr/Rus | Rus/Eng/Fre/Spa -Star-Lord-  5 / 0   6.02 GB   2019-07-24 00:30 
   Левіафан / Leviafan / Leviathan (2014) 720p Ukr/Rus | Rus/Eng/Fre/Spa -Star-Lord-  0 / 0   6.27 GB   2019-07-23 23:39 
   Левіафан / Leviafan / Leviathan (2014) DniproFilm  9 / 0   2.15 GB   2019-07-23 10:40 
   Левіафан / Leviafan / Leviathan (2014) 720p Ukr/Rus DniproFilm  0 / 0   4.89 GB   2019-07-23 10:40 
   Левіафан / Leviafan / Leviathan (2014) 1080p Ukr/Rus DniproFilm  2 / 0   7.72 GB   2019-07-23 10:40 
taras89 
Новенький


З нами з: 19.10.09
Востаннє: 20.11.19
Повідомлень: 6

2019-07-24 07:11  
ТО типу жарт?
talapishka 
Новенький


З нами з: 17.10.07
Востаннє: 20.11.19
Повідомлень: 20

2019-07-24 13:41  
taras89
taras89 написано:
ТО типу жарт?


на жаль - ні

Assassa 
Новенький


З нами з: 11.07.13
Востаннє: 20.11.19
Повідомлень: 7

2019-07-25 00:10  
Цитата:
ТО типу жарт?

А мені фільм сподобався. Він наче антипропаганда московії. Такі фільми потрібні, щоб певний прошарок населення бачив істинне обличчя московії

pvm65 
Свій


З нами з: 02.01.16
Востаннє: 21.11.19
Повідомлень: 105

2019-08-02 22:34  
Ото вже понасирали тим левіафаном на толоці
geniokk 
Новенький


З нами з: 08.05.12
Востаннє: 13.11.19
Повідомлень: 1

2019-08-02 22:40  
Фільм дуже достойний, щоб його подивитись. Навіть незважаючи на те, що знятий росіянами
Ваш часовий пояс: GMT + 2 Години

Нова тема   Відповісти