Напад на 13-у дільницю (Напад на 13-й відділок) / Assault on Precinct 13 (2005) Remux 1080p 3xUkr/Eng | Sub Eng

Нові коментарі

Нова тема   Відповісти
Автор Повідомлення
MakRA 
VIP


З нами з: 11.11.18
Востаннє: 22.10.20
Повідомлень: 1155

2019-07-23 19:49  
Напад на 13-у дільницю (Напад на 13-й відділок) / Assault on Precinct 13 (2005) Remux 1080p 3xUkr/Eng | Sub Eng


Український постер:

Жанр: екшн, кримінальний, драма
Країна: Франція, США



Кінокомпанія: Rogue Pictures, Why Not Productions, Liaison Films
Режисер: Жан-Франсуа Ріше [Jean-François Richet]
Актори: Ітан Хоук [Ethan Hawke], Лоуренс Фішборн [Laurence Fishburne], Гебріел Бірн [Gabriel Byrne], Марія Белло [Maria Bello], Дреа де Маттео [Drea de Matteo], Джон Легуізамо [John Leguizamo], Брайан Деннехі [Brian Dennehy], Джа Рул [Ja Rule], Каррі Грем [Currie Graham], Аіша Хінд [Aisha Hinds], Саша Ройз [Sasha Roiz],

Сюжет:
Лічені години залишаються до закриття 13-го поліцейського відділку. Але поки його співробітники на чолі з сержантом Роуніком готуються до зустрічі Нового року, снігова буря розвертає до них спецавтобус зі злочинцями. У їх числі і тільки що захоплений гангстер Меріон Бішоп. Ніщо, здавалося б, не дозволить відволікти поліцейських від святкування: поки озброєні люди в масках не нападають на дільницю. І охоронці закону вимушені об'єднатися зі злочинцями, щоб вижити цієї ночі! ...


Цікаві факти:

-Роль Джейка Роніка пропонували Марку Волбергу, але він відмовився.
-Слово «fuck» і його похідні вживаються у фільмі 127 разів.


Тривалість: 01:48:48
Якість: Remux 1080p
Відео:
кодек: VC-1
розмір кадру: 1920 х 1080
бітрейт: 30,6 Mб/с

Аудіо # 1:
мова: українська
переклад: двоголосий закадровий
кодек: 2.0
бітрейт: 192 кб/с
назву перекладено як: "Напад на 13-у дільницю"

Аудіо # 2:
мова: українська
переклад: двоголосий закадровий
кодек: 2.0
бітрейт: 192 кб/с
назву перекладено як: "Напад на 13-й відділок"

Аудіо # 3:
мова: українська
переклад: двоголосий закадровий
кодек: 2.0
бітрейт: 192 кб/с
назву перекладено як: "Напад на 13-й відділок"

Аудіо # 4:
мова: англійська
переклад: оригінал
кодек: -HD MA 5.1
бітрейт: 3936 кб/с

Субтитри # 1: (Full)
мова: англійська
тип: пререндерні
формат: *.pgs

Субтитри # 2: (SDH)
мова: англійська
тип: програмні (м'які)
формат: *.srt
Info
General
Unique ID : 256055489948392119070743676279276370166 (0xC0A27E5966649D1C4DCC8EC0EFDEF8F6)
Complete name : G:\Assault on Precinct 13 (2005) Remux 1080p 3xUkrEng | Sub Eng [Hurtom].
Format :
Format version : Version 4
File size : 26.7 GiB
Duration : 1 h 48 min
Overall bit rate mode : Variable
Overall bit rate : 35.2 Mb/s
Movie name : Напад на 13-у дільницю (Напад на 13-й відділок) / Assault on Precinct 13 (2005) Remux 1080p 3xUkr/Eng | Sub Eng [Hurtom]
Encoded date : UTC 2019-07-23 13:17:57
Writing application : v25.0.0 ('Prog Noir') 64-bit
Writing library : libebml v1.3.6 + v1.4.9

Video
ID : 1
Format : VC-1
Format profile : [email protected]
Codec ID : V_MS/VFW/FOURCC / WVC1
Codec ID/Hint : Microsoft
Duration : 1 h 48 min
Bit rate : 30.6 Mb/s
Width : 1 920 pixels
Height : 1 080 pixels
Display aspect ratio : 16:9
Frame rate mode : Constant
Frame rate : 23.976 (24000/1001) FPS
Color space : YUV
Chroma subsampling : 4:2:0
Bit depth : 8 bits
Scan type : Progressive
Compression mode : Lossy
Bits/(Pixel*Frame) : 0.616
Stream size : 23.3 GiB (87%)
Title : Assault on Precinct 13 (2005) Remux 1080p 3xUkr/Eng | Sub Eng [Hurtom]
Language : Ukrainian
Default : Yes
Forced : Yes

Audio #1
ID : 2
Format : AC-3
Format/Info : Audio Coding 3
Commercial name : Dolby Digital
Codec ID : A_AC3
Duration : 1 h 48 min
Bit rate mode : Constant
Bit rate : 192 kb/s
Channel(s) : 2 channels
Channel layout : L R
Sampling rate : 48.0 kHz
Frame rate : 31.250 FPS (1536 SPF)
Bit depth : 16 bits
Compression mode : Lossy
Delay relative to video : 1 s 0 ms
Stream size : 149 MiB (1%)
Title : DVO [НОВИЙ] 2.0
Language : Ukrainian
Service kind : Complete Main
Default : Yes
Forced : Yes

Audio #2
ID : 3
Format : AC-3
Format/Info : Audio Coding 3
Commercial name : Dolby Digital
Codec ID : A_AC3
Duration : 1 h 48 min
Bit rate mode : Constant
Bit rate : 192 kb/s
Channel(s) : 2 channels
Channel layout : L R
Sampling rate : 48.0 kHz
Frame rate : 31.250 FPS (1536 SPF)
Bit depth : 16 bits
Compression mode : Lossy
Delay relative to video : 1 s 0 ms
Stream size : 149 MiB (1%)
Title : DVO [NLO.TV] 2.0
Language : Ukrainian
Service kind : Complete Main
Default : No
Forced : No

Audio #3
ID : 4
Format : AC-3
Format/Info : Audio Coding 3
Commercial name : Dolby Digital
Codec ID : A_AC3
Duration : 1 h 46 min
Bit rate mode : Constant
Bit rate : 192 kb/s
Channel(s) : 2 channels
Channel layout : L R
Sampling rate : 48.0 kHz
Frame rate : 31.250 FPS (1536 SPF)
Bit depth : 16 bits
Compression mode : Lossy
Delay relative to video : 1 s 0 ms
Stream size : 146 MiB (1%)
Title : DVO [1+1] [ICTV] 2.0
Language : Ukrainian
Service kind : Complete Main
Default : No
Forced : No

Audio #4
ID : 5
Format : XLL
Format/Info : Digital Theater Systems
Commercial name : -HD Master Audio
Codec ID : A_DTS
Duration : 1 h 48 min
Bit rate mode : Variable
Bit rate : 3 936 kb/s
Channel(s) : 6 channels
Channel layout : C L R Ls Rs LFE
Sampling rate : 48.0 kHz
Frame rate : 93.750 FPS (512 SPF)
Bit depth : 24 bits
Compression mode : Lossless
Delay relative to video : 42 ms
Stream size : 2.99 GiB (11%)
Title : Original -HD MA 5.1
Language : English
Default : No
Forced : No

Text #1
ID : 6
Format : PGS
Muxing mode : zlib
Codec ID : S_HDMV/PGS
Codec ID/Info : Picture based subtitle format used on BDs/HD-DVDs
Duration : 1 h 41 min
Bit rate : 42.4 kb/s
Count of elements : 2932
Stream size : 30.8 MiB (0%)
Title : Eng (Full))
Language : English
Default : No
Forced : No

Text #2
ID : 7
Format : UTF-8
Codec ID : S_TEXT/UTF8
Codec ID/Info : UTF-8 Plain Text
Duration : 1 h 41 min
Bit rate : 63 b/s
Count of elements : 1461
Stream size : 46.9 KiB (0%)
Title : Eng (SDH)
Language : English
Default : No
Forced : No
Скріншоти
Джерело: &
За запис з Нового дякую пану 380990387745;
За запис з НЛО дякую пану РОМЕО;
За доріжку від 1+1 дякую панам: BASTERD-94, anonymous;
За постер пану WriterMix;
За синхронізацію аудіодоріжок подяка пану Arsenfpu.
Особиста оцінка: 10 - без зайвих вагань рекомендую всім!


Золотий реліз (завантажене не впливає на рейтинг)
 Трекер:    Зареєстрований   

Завантажити / скачати фільм українською



відео для новачків



 Зареєстрований:   2019-07-23 19:49
 Розмір:   26.73 GB 
 Оцінка фільму:   9.5/10 (Голосів: 8)
   
+380954897458 
VIP


З нами з: 02.06.17
Востаннє: 22.10.20
Повідомлень: 950

2019-07-24 00:43  
От би хто зробив оригінальну стрічку Джона Карпентера! Ото де круте кіно. А це фігня, якщо порівнювати, мені не сподобалося зовсім. Хай вибачають мене прихильники цього кіна, а таких чимало. Я не можу збагнути : на світі стільки класних бойовиків, значно кращих за цей, та більшість людей ті бойовики паплюжать, а цей люблять усі, майже одностайно! Це є для мене загадковим та незрозумілим.
MakRA 
VIP


З нами з: 11.11.18
Востаннє: 22.10.20
Повідомлень: 1155

2019-07-24 00:57  
От би хто зробив оригінальну стрічку Джона Карпентера
Теж хочу , але немає української озвучки. Я б із задоволенням зробив. Блюр лежить давно)

Додано через 3 хвилини 54 секунди:

Це як "Ніч живих мерців" Ромеро. Рімейк є, а оригіналу немає українсько Sad (1)

Ваш часовий пояс: GMT + 2 Години

Нова тема   Відповісти