Левіафан / Leviafan / Leviathan (2014) 720p Ukr/Rus

Нові коментарі

Нова тема   Відповісти
Останній раз роздавалося olexkon (2019-11-13)
Автор Повідомлення
DniproFilm 
VIP


З нами з: 10.10.18
Востаннє: 12.11.19
Повідомлень: 288

2019-07-23 10:40  
Левіафан / Leviafan / Leviathan (2014) 720p Ukr/Rus



Жанр: драма, кримінальний
Країна: Росія



Кінокомпанія / телеканал: Non-Stop Productions, A Company Russia, Russian Ministry of Culture
Режисер: Андрій Звягінцев
Актори/ролі озвучують: Алєксєй Сєрєбряков, Єлєна Лядова, Владімір Вдовічєнков, Роман Мадянов, Анна Уколова, Алєксєй Розін, Сєргєй Походаєв, Платон Камєнєв, Сєргєй Бачурскій, Валєрій Грішко та інші

Сюжет:
Московський адвокат Дмітрій приїжджає в північну глибинку, щоб допомогти своєму старому армійському другові Ніколаю у судовому позові проти місцевої влади, яка хоче забрати землю і знести будинок, де живе головний герой...


Тривалість: 02:21:27
Якість: 720p

Відео:
кодек:
розмір кадру: 1280x532
бітрейт: ~4000 кб/с

Аудіо # 1:
мова: українська
переклад: багатоголосий закадровий
кодек: 5.1
бітрейт: 384 кб/с

Аудіо # 2:
мова: російська
переклад: оригінал
кодек: 5.1
бітрейт: 640 кб/с

Джерело озвучення:
DniproFilm
Info

Video
ID : 1
Format : AVC
Format/Info : Advanced Video Codec
Format profile : [email protected]
Format settings : CABAC / 4 Ref Frames
Format settings, CABAC : Yes
Format settings, ReFrames : 4 frames
Codec ID : V_MPEG4/ISO/AVC
Duration : 2 h 21 min
Bit rate : 3 928 kb/s
Width : 1 280 pixels
Height : 532 pixels
Display aspect ratio : 2.40:1
Frame rate mode : Constant
Frame rate : 24.000 FPS
Color space : YUV
Chroma subsampling : 4:2:0
Bit depth : 8 bits
Scan type : Progressive
Bits/(Pixel*Frame) : 0.240
Stream size : 3.88 GiB (79%)
Language : English
Default : Yes
Forced : No
Color range : Limited
Color primaries : BT.601 NTSC
Transfer characteristics : BT.601
Matrix coefficients : BT.601

Audio #1
ID : 2
Format : AC-3
Format/Info : Audio Coding 3
Commercial name : Dolby Digital
Codec ID : A_AC3
Duration : 2 h 21 min
Bit rate mode : Constant
Bit rate : 384 kb/s
Channel(s) : 6 channels
Channel positions : Front: L C R, Side: L R, LFE
Sampling rate : 48.0 kHz
Frame rate : 31.250 FPS (1536 SPF)
Bit depth : 16 bits
Compression mode : Lossy
Stream size : 389 MiB (8%)
Title : DniproFilm
Language : Ukrainian
Service kind : Complete Main
Default : Yes
Forced : No

Audio #2
ID : 3
Format : AC-3
Format/Info : Audio Coding 3
Commercial name : Dolby Digital
Codec ID : A_AC3
Duration : 2 h 21 min
Bit rate mode : Constant
Bit rate : 640 kb/s
Channel(s) : 6 channels
Channel positions : Front: L C R, Side: L R, LFE
Sampling rate : 48.0 kHz
Frame rate : 31.250 FPS (1536 SPF)
Bit depth : 16 bits
Compression mode : Lossy
Stream size : 648 MiB (13%)
Language : English
Service kind : Complete Main
Default : No
Forced : No
Скріншоти




Авторський реліз (завантажувати можна без реєстрації)
 Трекер:    Зареєстрований   

Завантажити / скачати фільм українською



відео для новачків



 Зареєстрований:   2019-07-23 10:40
 Розмір:   4.89 GB 
 Оцінка фільму:   2.5/10 (Голосів: 18)
   
Інші релізи
wolesj 
VIP


З нами з: 15.07.12
Востаннє: 10.11.19
Повідомлень: 677

2019-07-24 20:04  
Як вчора зависло на 700 МБ, так і досі. Зруштеся хтось, будь ласка!
-Star-Lord- 
VIP


З нами з: 09.08.18
Востаннє: 14.11.19
Повідомлень: 1264

2019-07-24 20:38  
wolesj
Можете викачати цей реліз - https://toloka.to/t102799

Ваш часовий пояс: GMT + 2 Години

Нова тема   Відповісти