Левіафан / Leviafan / Leviathan (2014) 1080p Ukr/Rus

Нові коментарі

Нова тема   Відповісти
Автор Повідомлення
DniproFilm 
VIP


З нами з: 10.10.18
Востаннє: 25.09.20
Повідомлень: 432

2019-07-23 11:40  
Левіафан / Leviafan / Leviathan (2014) 1080p Ukr/Rus



Жанр: драма, кримінальний
Країна: Росія



Кінокомпанія / телеканал: Non-Stop Productions, A Company Russia, Russian Ministry of Culture
Режисер: Андрій Звягінцев
Актори/ролі озвучують: Алєксєй Сєрєбряков, Єлєна Лядова, Владімір Вдовічєнков, Роман Мадянов, Анна Уколова, Алєксєй Розін, Сєргєй Походаєв, Платон Камєнєв, Сєргєй Бачурскій, Валєрій Грішко та інші

Сюжет:
Московський адвокат Дмітрій приїжджає в північну глибинку, щоб допомогти своєму старому армійському другові Ніколаю у судовому позові проти місцевої влади, яка хоче забрати землю і знести будинок, де живе головний герой...


Тривалість: 02:21:27
Якість: 1080p

Відео:
кодек:
розмір кадру: 1920x800
бітрейт: ~7000 кб/с

Аудіо # 1:
мова: українська
переклад: багатоголосий закадровий
кодек: 5.1
бітрейт: 384 кб/с

Аудіо # 2:
мова: російська
переклад: оригінал
кодек: 5.1
бітрейт: 640 кб/с

Джерело озвучення:
DniproFilm
Info

Video
ID : 1
Format : AVC
Format/Info : Advanced Video Codec
Format profile : [email protected]
Format settings : CABAC / 4 Ref Frames
Format settings, CABAC : Yes
Format settings, ReFrames : 4 frames
Codec ID : V_MPEG4/ISO/AVC
Duration : 2 h 21 min
Bit rate : 6 790 kb/s
Width : 1 920 pixels
Height : 800 pixels
Display aspect ratio : 2.40:1
Frame rate mode : Constant
Frame rate : 24.000 FPS
Color space : YUV
Chroma subsampling : 4:2:0
Bit depth : 8 bits
Scan type : Progressive
Bits/(Pixel*Frame) : 0.184
Stream size : 6.71 GiB (87%)
Language : English
Default : Yes
Forced : No
Color range : Limited
Color primaries : BT.709
Transfer characteristics : BT.709
Matrix coefficients : BT.709

Audio #1
ID : 2
Format : AC-3
Format/Info : Audio Coding 3
Commercial name : Dolby Digital
Codec ID : A_AC3
Duration : 2 h 21 min
Bit rate mode : Constant
Bit rate : 384 kb/s
Channel(s) : 6 channels
Channel positions : Front: L C R, Side: L R, LFE
Sampling rate : 48.0 kHz
Frame rate : 31.250 FPS (1536 SPF)
Bit depth : 16 bits
Compression mode : Lossy
Stream size : 389 MiB (5%)
Title : DniproFilm
Language : Ukrainian
Service kind : Complete Main
Default : Yes
Forced : No

Audio #2
ID : 3
Format : AC-3
Format/Info : Audio Coding 3
Commercial name : Dolby Digital
Codec ID : A_AC3
Duration : 2 h 21 min
Bit rate mode : Constant
Bit rate : 640 kb/s
Channel(s) : 6 channels
Channel positions : Front: L C R, Side: L R, LFE
Sampling rate : 48.0 kHz
Frame rate : 31.250 FPS (1536 SPF)
Bit depth : 16 bits
Compression mode : Lossy
Stream size : 648 MiB (8%)
Language : Russian
Service kind : Complete Main
Default : No
Forced : No
Скріншоти




Авторський реліз (завантажувати можна без реєстрації)
 Трекер:    Зареєстрований   

Завантажити / скачати фільм українською



відео для новачків



 Зареєстрований:   2019-07-23 11:40
 Розмір:   7.72 GB 
 Оцінка фільму:   2.6/10 (Голосів: 23)
   
Інші релізи
Oleksa9 
VIP


З нами з: 17.05.12
Востаннє: 26.09.20
Повідомлень: 412

2019-07-23 18:16  
Це жарт? "войни нєт"? Хунта??
Cartwright 
VIP


З нами з: 23.03.13
Востаннє: 26.09.20
Повідомлень: 356

2019-07-23 18:39  
Локалізація постера чудова, от би ще й в описі релізу так імена зробити, проте не дозволять.
igor911 
Модератор відео


З нами з: 18.01.08
Востаннє: 27.09.20
Повідомлень: 15006

2019-07-23 23:44  
Oleksa9 написано:
Це жарт?

ні, це антиімперська пропаганда
Вікіпедія написано:
У Росії виявилась неоднозначна позиція [щодо фільму] двох діаметрально протилежних таборів — від підкреслення можливого несприйняття фільму публікою через показ життя [в РФ], де Бог і віра замінені ритуалами і риторикою, до звинувачень в антиросійському спрямуванні, закликів заборони показу.

Orest 
Поважний учасник


З нами з: 11.06.08
Востаннє: 25.09.20
Повідомлень: 200

2019-07-24 10:49  
Oleksa9 написано:
Це жарт?

Ні це початок реабілітації рассєянського кінематографу. Спочатку, "там не всі погані". Дивіться є і "правильні" фільми! А потім, поняття "правильні" фільми буде потрохи зміщуватися і так аж до міхалкова.

-VJ- 
VIP


З нами з: 01.11.09
Востаннє: 26.09.20
Повідомлень: 763

2019-07-24 13:45  
Orest

Ще й в ролях Вдовічєнков, який з Криму розповітав, як там добре, і Сєрєбряков, який казав, що "Крим і так завжди був російським".

lastbreath 
Свій


З нами з: 02.12.15
Востаннє: 26.09.20
Повідомлень: 55

2019-07-24 23:30  
Сєрєбряков, який казав, що "Крим і так завжди був російським".

А що, він неправий? Я був в Криму в 2009-му. З українського там лише лавочки були біля під"їздів розмальовані в жовто-блакитний колір. Менталітет у людей там був на 95% російським. Так що Серебряков не збрехав.

І-р 
Свій


З нами з: 21.07.16
Востаннє: 26.09.20
Повідомлень: 104

2019-07-26 19:00  
Orest
Так як американський і європейський кінематограф реабілітував всяких збочинців?

pvm65 
Свій


З нами з: 02.01.16
Востаннє: 26.09.20
Повідомлень: 110

2019-08-02 23:10  
lastbreath
Українська гнида

Ваш часовий пояс: GMT + 2 Години

Нова тема   Відповісти