Оборонець / Concussion (2015) 1080p H.265 Eng | Sub Ukr/Eng

Нові коментарі

Нова тема   Відповісти
Автор Повідомлення
Anonymous 







2019-07-22 21:58  
Оборонець / Concussion (2015) 1080p H.265 Eng | Sub Ukr/Eng

Оборонець / Concussion (2015) 1080p H.265 Eng | Sub Ukr/Eng


Жанр: драма, спорт, трилер, біографічний
Країна: США
Кінокомпанія: LStar Capital Village Roadshow Pictures Scott Free Productions The Shuman Company Cara Films The Cantillon Company
Режисер: Пітер Лендесман
Актори: Адвел Акіннуойє Агбадж, Майк Омаллі, Едді Марсан, Гугу Мбата-Роу, Гілл Гарпер, Люк Вілсон, Бітсі Таллоч, Альберт Брукс, Вілл Сміт, Алек Болдвін, Девід Морс, Арлісс Говард, Стівен Мойер, Пол Райзер

Сюжет:
Американський біографічно-спортивний драматичний фільм, знятий Пітером Лендесманом[1][2]. Світова прем'єра стрічки відбулась 10 листопада 2015 року на фестивалі Американського інституту кіномистецтва. Фільм розповідає про доктора Беннета Омалу, який намагається довести факт отримання футболістами важких травм голови під час гри, попри заперечення Національної футбольної ліги.

Тривалість: 02:02:49
Якість:
Відео:
кодек: H.265 (HEVC)
розмір кадру: 1920 x 800
бітрейт: 5 607 кб/с
бітова глибина: 10 біт
Увага! Перед завантаженням переконайтесь, що ваш пристрій відтворення (та/або ПЗ) підтримує H.265 (HEVC)

Аудіо # 1:
мова: англійська
переклад: оригінал
кодек: 5.1
бітрейт: 1510 кб/с

Субтитри # 1:
мова: українська (Full),
тип: програмні (м'які)
формат: *.srt

Субтитри # 2:
мова: англійська (Full),
тип: програмні (м'які)
формат: *.srt

Субтитри # 3:
мова: англійська (SDH),
тип: програмні (м'які)
формат: *.srt


Info
Код:
General
Unique ID                                : 208175544508393192119110999949414017924 (0x9C9D26C7C5B4C1D3D090B80DFB64AB84)
Complete name                            : Concussion (2015) 1080p H.265 [ENG] [Hurtom].
Format                                   :
Format version                           : Version 4 / Version 2
File size                                : 6.11 GiB
Duration                                 : 2 h 2 min
Overall bit rate                         : 7 118 kb/s
Movie name                               : Оборонець / Concussion (2015)
Encoded date                             : UTC 2019-07-22 07:40:46
Writing application                      : v20.0.0 ('I Am The Sun') 64-bit
Writing library                          : libebml v1.3.5 + v1.4.8
Cover                                    : Yes
Attachments                              : Cover.jpg

Video
ID                                       : 1
Format                                   : HEVC
Format/Info                              : High Efficiency Video Coding
Format profile                           : Main [email protected]@High
Codec ID                                 : V_MPEGH/ISO/HEVC
Duration                                 : 2 h 2 min
Bit rate                                 : 5 607 kb/s
Width                                    : 1 920 pixels
Height                                   : 800 pixels
Display aspect ratio                     : 2.40:1
Frame rate mode                          : Constant
Frame rate                               : 23.976 (24000/1001) FPS
Color space                              : YUV
Chroma subsampling                       : 4:2:0
Bit depth                                : 10 bits
Bits/(Pixel*Frame)                       : 0.152
Stream size                              : 4.81 GiB (79%)
Title                                    : Оборонець / Concussion (2015)
Language                                 : English
Default                                  : Yes
Forced                                   : No
Color range                              : Limited
Color primaries                          : BT.709
Transfer characteristics                 : BT.709
Matrix coefficients                      : BT.709

Audio
ID                                       : 2
Format                                   :
Format/Info                              : Digital Theater Systems
Codec ID                                 : A_DTS
Duration                                 : 2 h 2 min
Bit rate mode                            : Constant
Bit rate                                 : 1 509 kb/s
Channel(s)                               : 6 channels
Channel positions                        : Front: L C R, Side: L R, LFE
Sampling rate                            : 48.0 kHz
Frame rate                               : 93.750 FPS (512 SPF)
Bit depth                                : 24 bits
Compression mode                         : Lossy
Delay relative to video                  : 11 ms
Stream size                              : 1.29 GiB (21%)
Title                                    : / 5.1 Ch / 1509 kbps / Original
Language                                 : English
Default                                  : Yes
Forced                                   : No

Text #1
ID                                       : 3
Format                                   : UTF-8
Codec ID                                 : S_TEXT/UTF8
Codec ID/Info                            : UTF-8 Plain Text
Duration                                 : 2 h 2 min
Bit rate                                 : 87 b/s
Count of elements                        : 1381
Stream size                              : 78.4 KiB (0%)
Title                                    : Full
Language                                 : Ukrainian
Default                                  : Yes
Forced                                   : Yes

Text #2
ID                                       : 4
Format                                   : UTF-8
Codec ID                                 : S_TEXT/UTF8
Codec ID/Info                            : UTF-8 Plain Text
Duration                                 : 1 h 57 min
Bit rate                                 : 53 b/s
Count of elements                        : 1330
Stream size                              : 46.1 KiB (0%)
Title                                    : Full
Language                                 : English
Default                                  : No
Forced                                   : No

Text #3
ID                                       : 5
Format                                   : UTF-8
Codec ID                                 : S_TEXT/UTF8
Codec ID/Info                            : UTF-8 Plain Text
Duration                                 : 1 h 57 min
Bit rate                                 : 53 b/s
Count of elements                        : 1322
Stream size                              : 46.0 KiB (0%)
Title                                    : SDH
Language                                 : English
Default                                  : No
Forced                                   : No

Menu
00:00:00.000                             : en:00:00:00.000
00:07:26.696                             : en:00:07:26.696
00:14:41.631                             : en:00:14:41.631
00:21:48.098                             : en:00:21:48.098
00:29:36.566                             : en:00:29:36.566
00:37:42.927                             : en:00:37:42.927
00:43:44.539                             : en:00:43:44.539
00:51:30.713                             : en:00:51:30.713
00:59:35.447                             : en:00:59:35.447
01:06:58.264                             : en:01:06:58.264
01:13:07.508                             : en:01:13:07.508
01:22:18.308                             : en:01:22:18.308
01:30:34.721                             : en:01:30:34.721
01:38:15.098                             : en:01:38:15.098
01:46:46.942                             : en:01:46:46.942
01:53:34.808                             : en:01:53:34.808
Світлини




Джерело: &
Особиста оцінка: 0 - не дивився


 Трекер:    Зареєстрований   

Завантажити / скачати фільм українською



відео для новачків



 Зареєстрований:   2019-07-22 21:58
 Розмір:   6.11 GB 
 Оцінка фільму:   9/10 (Голосів: 4)
   
Інші релізи
   Оборонець / Concussion (2015) 720p Eng | Sub Ukr/Eng -Star-Lord-  0 / 0   4.51 GB   2019-07-22 21:56 
   Оборонець / Concussion (2015) AVC ENG | sub Ukr/Eng leicheman  6 / 0   1.8 GB   2016-11-05 14:06 
Ваш часовий пояс: GMT + 2 Години

Нова тема   Відповісти