Капітан Марвел / Captain Marvel [Open Matte] (2019) 1080p Ukr/Eng | Sub Eng

Нові коментарі

Нова тема   Відповісти
Автор Повідомлення
Anonymous 







2019-07-22 21:36  
Капітан Марвел / Captain Marvel [Open Matte] (2019) 1080p Ukr/Eng | Sub Eng

Капітан Марвел / Captain Marvel [Open Matte] (2019) 1080p Ukr/Eng | Sub Eng


Жанр: пригоди, фантастика, екшн
Країна: США





Кінокомпанія: Walt Disney Pictures, Marvel Studios
Режисер: Анна Боден, Раян Флек
Актори: Брі Ларсон, Семюел Л. Джексон, Бен Мендельсон, Джуд Лоу, Аннетт Бенінг, Лашана Лінч, Кларк Грегг, Джемма Чан

Сюжет:
Колись Керол Денверс жила на Землі та була пілотом ВПС США. У неї було важке дитинство, вона пройшла багато, щоб стати тою, ким стала. І всього цього дівчина майже не пам'ятає. Виною тому одна аварія, яка ледь не забрала її життя. Врятували Керол інопланетяни з раси Крії. Вони вирішили дати дівчині своєї крові, прийнявши до своєї раси та зробивши її ідеальним бійцем у війні з іншою жорстокої расою Скруллів. Керол має суперсили: вона невразлива, може літати та створює потужні потоки енергії. Коли полем битви двох рас стає Земля, дівчина починає згадувати своє минуле життя. Від Керол залежить доля Землі і раси Крії, адже вона одна з наймогутніших істот у Всесвіті.


Тривалість: 02:03:41
Якість: 1080p [Open Matte, відеоряд з російського онлайн-кінотеатру]
Відео:
кодек:
розмір кадру: 1920x1080
бітрейт: 4067 кб/с
примітка: Увага! Присутні російські жорсткі (вшиті) форсовані субтитри на написи та назва російською
Зразок:

Аудіо # 1:
мова: українська
переклад: професійний дубльований
кодек: 5.1
бітрейт: 640 кб/с

Аудіо # 2:
мова: українська
переклад: професійний дубльований
кодек: 5.1
бітрейт: 1509 кб/с

Аудіо # 3:
мова: англійська
переклад: професійний дубльований
кодек: 5.1
бітрейт: 1509 кб/с

Аудіо # 4:
мова: англійська
переклад: коментарі |Commentary by Co-Directors/Writers Anna Boden & Ryan Fleck|
кодек: 2.0
бітрейт: 192 кб/с

Аудіо # 5:
мова: англійська
переклад: описова |Descriptive|
кодек: 2.0
бітрейт: 320 кб/с

Субтитри # 1: (Forced)
мова: українська
тип: програмні (м'які)
формат: *.srt
переклад: Ash61

Субтитри # 2-4: (Forced, Full, SDH, SDH-Colored, Commentary)
мова: англійська
тип: програмні (м'які)
формат: *.srt
Info
Код:
General
Complete name                            : Captain Marvel [Open Matte] (2019) 1080p [UKR_ENG]  [Hurtom_&_BLUEBIRD].
Format                                   :
Format version                           : Version 4
File size                                : 7.13 GiB
Duration                                 : 2 h 4 min
Overall bit rate                         : 8 232 kb/s
Movie name                               : Captain Marvel [Open Matte] (2019) 1080p [UKR_ENG]  [BLUEBIRD]
Encoded date                             : UTC 2019-07-22 15:43:17
Writing application                      : v30.1.0 ('Forever And More') 64-bit
Writing library                          : libebml v1.3.6 + v1.4.9
Cover                                    : Yes
Attachments                              : cover.jpg

Video
ID                                       : 1
Format                                   : AVC
Format/Info                              : Advanced Video Codec
Format profile                           : [email protected]
Format settings                          : CABAC / 4 Ref Frames
Format settings, CABAC                   : Yes
Format settings, RefFrames               : 4 frames
Codec ID                                 : V_MPEG4/ISO/AVC
Duration                                 : 2 h 4 min
Bit rate                                 : 4 067 kb/s
Nominal bit rate                         : 5 000 kb/s
Width                                    : 1 920 pixels
Height                                   : 1 080 pixels
Display aspect ratio                     : 16:9
Frame rate mode                          : Constant
Frame rate                               : 23.976 (24000/1001) FPS
Color space                              : YUV
Chroma subsampling                       : 4:2:0
Bit depth                                : 8 bits
Scan type                                : Progressive
Bits/(Pixel*Frame)                       : 0.082
Stream size                              : 3.52 GiB (49%)
Writing library                          : core 148 r2721 72d53ab
Encoding settings                        : cabac=1 / ref=4 / deblock=1:0:0 / analyse=0x3:0x133 / me=umh / subme=10 / psy=1 / psy_rd=1.00:0.00 / mixed_ref=1 / me_range=24 / chroma_me=1 / trellis=2 / 8x8dct=1 / cqm=0 / deadzone=21,11 / fast_pskip=1 / chroma_qp_offset=-2 / threads=34 / lookahead_threads=5 / sliced_threads=0 / nr=0 / decimate=1 / interlaced=0 / bluray_compat=0 / constrained_intra=0 / bframes=8 / b_pyramid=2 / b_adapt=2 / b_bias=0 / direct=3 / weightb=1 / open_gop=0 / weightp=2 / keyint=100 / keyint_min=50 / scenecut=40 / intra_refresh=0 / rc_lookahead=60 / rc=2pass / mbtree=1 / bitrate=5000 / ratetol=1.0 / qcomp=0.60 / qpmin=0 / qpmax=69 / qpstep=4 / cplxblur=20.0 / qblur=0.5 / vbv_maxrate=5500 / vbv_bufsize=920 / nal_hrd=none / filler=0 / ip_ratio=1.40 / aq=1:1.00
Language                                 : English
Default                                  : Yes
Forced                                   : Yes
Color range                              : Full

Audio #1
ID                                       : 2
Format                                   : AC-3
Format/Info                              : Audio Coding 3
Commercial name                          : Dolby Digital
Codec ID                                 : A_AC3
Duration                                 : 2 h 3 min
Bit rate mode                            : Constant
Bit rate                                 : 640 kb/s
Channel(s)                               : 6 channels
Channel layout                           : L R C LFE Ls Rs
Sampling rate                            : 48.0 kHz
Frame rate                               : 31.250 FPS (1536 SPF)
Bit depth                                : 16 bits
Compression mode                         : Lossy
Stream size                              : 566 MiB (8%)
Title                                    : , 3/2 (L,C,R,l,r) + LFE ch, ~640 kbps
Language                                 : Ukrainian
Service kind                             : Complete Main
Default                                  : No
Forced                                   : No

Audio #2
ID                                       : 3
Format                                   :
Format/Info                              : Digital Theater Systems
Codec ID                                 : A_DTS
Duration                                 : 2 h 3 min
Bit rate mode                            : Constant
Bit rate                                 : 1 509 kb/s
Channel(s)                               : 6 channels
Channel layout                           : C L R Ls Rs LFE
Sampling rate                            : 48.0 kHz
Frame rate                               : 93.750 FPS (512 SPF)
Bit depth                                : 24 bits
Compression mode                         : Lossy
Stream size                              : 1.30 GiB (18%)
Title                                    : , 3/2 (L,C,R,l,r) + LFE ch, ~1509 kbps
Language                                 : Ukrainian
Default                                  : Yes
Forced                                   : No

Audio #3
ID                                       : 4
Format                                   :
Format/Info                              : Digital Theater Systems
Codec ID                                 : A_DTS
Duration                                 : 2 h 3 min
Bit rate mode                            : Constant
Bit rate                                 : 1 509 kb/s
Channel(s)                               : 6 channels
Channel layout                           : C L R Ls Rs LFE
Sampling rate                            : 48.0 kHz
Frame rate                               : 93.750 FPS (512 SPF)
Bit depth                                : 24 bits
Compression mode                         : Lossy
Stream size                              : 1.30 GiB (18%)
Title                                    : , 3/2 (L,C,R,l,r) + LFE ch, ~1509 kbps
Language                                 : English
Default                                  : No
Forced                                   : No

Audio #4
ID                                       : 5
Format                                   : AC-3
Format/Info                              : Audio Coding 3
Commercial name                          : Dolby Digital
Codec ID                                 : A_AC3
Duration                                 : 2 h 3 min
Bit rate mode                            : Constant
Bit rate                                 : 192 kb/s
Channel(s)                               : 2 channels
Channel layout                           : L R
Sampling rate                            : 48.0 kHz
Frame rate                               : 31.250 FPS (1536 SPF)
Bit depth                                : 16 bits
Compression mode                         : Lossy
Stream size                              : 170 MiB (2%)
Title                                    : Commentary by Co-Directors/Writers Anna Boden & Ryan Fleck
Language                                 : English
Service kind                             : Complete Main
Default                                  : No
Forced                                   : No

Audio #5
ID                                       : 6
Format                                   : AC-3
Format/Info                              : Audio Coding 3
Commercial name                          : Dolby Digital
Codec ID                                 : A_AC3
Duration                                 : 2 h 3 min
Bit rate mode                            : Constant
Bit rate                                 : 320 kb/s
Channel(s)                               : 2 channels
Channel layout                           : L R
Sampling rate                            : 48.0 kHz
Frame rate                               : 31.250 FPS (1536 SPF)
Bit depth                                : 16 bits
Compression mode                         : Lossy
Stream size                              : 283 MiB (4%)
Title                                    : Descriptive
Language                                 : English
Service kind                             : Complete Main
Default                                  : No
Forced                                   : No

Text #1
ID                                       : 7
Format                                   : UTF-8
Codec ID                                 : S_TEXT/UTF8
Codec ID/Info                            : UTF-8 Plain Text
Duration                                 : 2 h 2 min
Bit rate                                 : 1 b/s
Count of elements                        : 31
Stream size                              : 1.58 KiB (0%)
Title                                    : Ukrainian Forced
Language                                 : Ukrainian
Default                                  : No
Forced                                   : No

Text #2
ID                                       : 8
Format                                   : UTF-8
Codec ID                                 : S_TEXT/UTF8
Codec ID/Info                            : UTF-8 Plain Text
Duration                                 : 4 s 750 ms
Bit rate                                 : 23 b/s
Count of elements                        : 1
Stream size                              : 14.0 Bytes (0%)
Title                                    : English Forced
Language                                 : English
Default                                  : No
Forced                                   : No

Text #3
ID                                       : 9
Format                                   : UTF-8
Codec ID                                 : S_TEXT/UTF8
Codec ID/Info                            : UTF-8 Plain Text
Duration                                 : 1 h 53 min
Bit rate                                 : 47 b/s
Count of elements                        : 1402
Stream size                              : 39.6 KiB (0%)
Title                                    : English Full
Language                                 : English
Default                                  : No
Forced                                   : No

Text #4
ID                                       : 10
Format                                   : UTF-8
Codec ID                                 : S_TEXT/UTF8
Codec ID/Info                            : UTF-8 Plain Text
Duration                                 : 2 h 2 min
Bit rate                                 : 50 b/s
Count of elements                        : 1665
Stream size                              : 45.1 KiB (0%)
Title                                    : English Full SDH
Language                                 : English
Default                                  : No
Forced                                   : No

Text #5
ID                                       : 11
Format                                   : UTF-8
Codec ID                                 : S_TEXT/UTF8
Codec ID/Info                            : UTF-8 Plain Text
Duration                                 : 2 h 2 min
Bit rate                                 : 64 b/s
Count of elements                        : 1665
Stream size                              : 57.9 KiB (0%)
Title                                    : English Full SDH Colored
Language                                 : English
Default                                  : No
Forced                                   : No

Text #6
ID                                       : 12
Format                                   : UTF-8
Codec ID                                 : S_TEXT/UTF8
Codec ID/Info                            : UTF-8 Plain Text
Duration                                 : 2 h 3 min
Bit rate                                 : 98 b/s
Count of elements                        : 1977
Stream size                              : 89.2 KiB (0%)
Title                                    : Commentary by Co-Directors/Writers Anna Boden & Ryan Fleck
Language                                 : English
Default                                  : No
Forced                                   : No
[/center]
Порівняння наповнення кадру Blu-ray EUR та Open Matte:




Скріншоти




Джерело: &
Особиста оцінка: 9 - давно не бачив настільки якісне кіно


 Трекер:    Зареєстрований   

Завантажити / скачати фільм українською



відео для новачків



 Зареєстрований:   2019-07-22 21:36
 Розмір:   7.13 GB 
 Оцінка фільму:   8.3/10 (Голосів: 9)
   
igor911 
Модератор відео


З нами з: 18.01.08
Востаннє: 21.08.19
Повідомлень: 13143

2019-07-22 22:13  
antik_2008 написано:
Якість: 1080p [Open Matte]

Тут є вшиті російські субтитри і назва російською? тоді треба вказати це в описі, бажано зі скріншотом для зразку. Також бажано додати порівняння наповнення кадру з блуреєм (є на блубірді).

antik_2008 написано:
бітрейт: 5000 кб/с

і виправити бітрейт відео

Anonymous 







2019-07-22 23:04  
Присутні російські форсовані субтитри.
igor911 написано:
Тут є вшиті російські субтитри і назва російською? тоді треба вказати це в описі, бажано зі скріншотом для зразку. Також бажано додати порівняння наповнення кадру з блуреєм (є на блубірді).

є саби вшиті і ролі озвучували

назву не бачив

наче все додав Happy

Graviller123 
Свій


З нами з: 26.08.15
Востаннє: 18.08.19
Повідомлень: 58

2019-08-04 18:21  
По перше: особисто я вдячний, що є OPEN MATTE, бо IMAX версія має дуже мало кадрів 16:9.
По друге: добре, що дали порівняння з блюром.
А по третє: хмм, а як це Увага! Присутні російські жорсткі (вшиті) форсовані субтитри на написи та назва російською ?? Просто коли хотіли викласти Open Matte "Люди Ікс: Апокаліпсис", то не дозволили, так як там присутні декілька сабів вшитих на рос. мові. А тут теж присутні, так пропускаєте. Може все ж і те хай люди викладуть?? Всеодно ж дубляж український там.

Nahalist 
Поважний учасник


З нами з: 13.12.13
Востаннє: 20.08.19
Повідомлень: 189

2019-08-06 15:40  
Graviller123 написано:
А по третє: хмм, а як це Увага! Присутні російські жорсткі (вшиті) форсовані субтитри на написи та назва російською ?? Просто коли хотіли викласти Open Matte "Люди Ікс: Апокаліпсис", то не дозволили, так як там присутні декілька сабів вшитих на рос. мові. А тут теж присутні, так пропускаєте. Може все ж і те хай люди викладуть?? Всеодно ж дубляж український там.

Я пам'ятаю просив якогось oдного юзера, що часто викладає OM - так, не захотів, бо начебто не можна з рос. локалізацією.

Ваш часовий пояс: GMT + 2 Години

Нова тема   Відповісти