Місяць (Місяць 2112) / Moon (2009) Remux 1080p 3xUkr/Eng | Sub Ukr/Eng

Нові коментарі

Нова тема   Відповісти
Автор Повідомлення
Anonymous 







2019-07-22 18:08  
Місяць / Місяць 2112 / Moon (2009) Remux 1080p 3xUkr/Eng | Sub Ukr/Eng

Місяць (Місяць 2112) / Moon (2009) Remux 1080p 3xUkr/Eng | Sub Ukr/Eng


Жанр: фантастика, трилер, психологічний
Країна: Велика Британія



Кінокомпанія: Liberty Films UK, Xingu Films, Limelight Fund
Режисер: Дункан Джонс
Актори: Кевін Спейсі, Сем Роквелл, Кая Скоделаріо, Метт Беррі, Малькольм Стюарт, Бенедікт Вонґ

Сюжет:
У Сема Белла добігає кінця трирічний котракт, згідно якого він самотньо жив на місячній базі, видобуваючи гелій-3 - єдиний порятунок людства від енергетичної кризи. За цей час у нього було вдосталь можливостей як обміркувати своє минуле та зроблені помилки, так і спланувати майбутнє життя - достроковий вихід на пенсію та відпочинок з дружиною і донечкою. Але за кілька тижнів до відльоту розмірене життя Сема порушується незрозумілими видіннями, а що ближчає кінець його добровільного ув'язнення, тим зрозумілішим стає той дивний факт, що у Місяця є своя думка щодо подальшої долі Белла.


Тривалість: 01:37:09
Якість: Remux 1080p

Відео:
кодек:
розмір кадру: 1920x1080
бітрейт: ~24667 кб/с

Аудіо # 1:
мова: українська
переклад: професійний дубльований
кодек: 5.1
бітрейт: 384 кб/с

Аудіо # 2:
мова: українська
переклад: багатоголосий закадровий
кодек: 2.0
бітрейт: 192 кб/с

Аудіо # 3:
мова: українська
переклад: багатоголосий закадровий | "Три Крапки"
кодек: 2.0
бітрейт: 256 кб/с

Аудіо # 4:
мова: англійська
переклад: оригінал
кодек: -HD MA 5.1
бітрейт: 2883 кб/с

Аудіо # 5:
мова: англійська
переклад: коментарі (Commentary with Writer/Director Duncan Jones, Director of Photography Gary Shaw, Concept Designer Gavin Rothery and Production Designer Tony Noble)
кодек: 2.0
бітрейт: 192 кб/с

Аудіо # 6:
мова: англійська
переклад: коментарі (Commentary with Writer/Director Duncan Jones and Producer Stuart Fenegan)
кодек: 2.0
бітрейт: 192 кб/с

Субтитри # 1:
мова: українська (Full),
тип: програмні (м'які)
формат: *.srt

Субтитри # 2:
мова: англійська (Full),
тип: програмні (м'які)
формат: *.srt


Info
Код:
General
Complete name                            : Moon (2009) Blu-Ray Remux [3xukr,3xeng] [ViDeO_Hurtom].
Format                                   :
Format version                           : Version 4
File size                                : 19.5 GiB
Duration                                 : 1 h 37 min
Overall bit rate mode                    : Variable
Overall bit rate                         : 28.8 Mb/s
Movie name                               : Moon (2009) Blu-Ray Remux [3xukr,3xeng] [ViDeO_Hurtom]
Encoded date                             : UTC 2019-07-22 14:42:47
Writing application                      : v30.1.0 ('Forever And More') 64-bit
Writing library                          : libebml v1.3.6 + v1.4.9

Video
ID                                       : 1
Format                                   : AVC
Format/Info                              : Advanced Video Codec
Format profile                           : [email protected]
Format settings                          : CABAC / 2 Ref Frames
Format settings, CABAC                   : Yes
Format settings, RefFrames               : 2 frames
Format settings, GOP                     : M=1, N=10
Codec ID                                 : V_MPEG4/ISO/AVC
Duration                                 : 1 h 37 min
Bit rate mode                            : Variable
Bit rate                                 : 24.7 Mb/s
Width                                    : 1 920 pixels
Height                                   : 1 080 pixels
Display aspect ratio                     : 16:9
Frame rate mode                          : Constant
Frame rate                               : 23.976 (24000/1001) FPS
Color space                              : YUV
Chroma subsampling                       : 4:2:0
Bit depth                                : 8 bits
Scan type                                : Progressive
Bits/(Pixel*Frame)                       : 0.496
Stream size                              : 16.7 GiB (86%)
Default                                  : Yes
Forced                                   : No

Audio #1
ID                                       : 2
Format                                   : AC-3
Format/Info                              : Audio Coding 3
Commercial name                          : Dolby Digital
Codec ID                                 : A_AC3
Duration                                 : 1 h 37 min
Bit rate mode                            : Constant
Bit rate                                 : 384 kb/s
Channel(s)                               : 6 channels
Channel layout                           : L R C LFE Ls Rs
Sampling rate                            : 48.0 kHz
Frame rate                               : 31.250 FPS (1536 SPF)
Bit depth                                : 16 bits
Compression mode                         : Lossy
Stream size                              : 267 MiB (1%)
Title                                    : , 3/2 (L,C,R,l,r) + LFE ch, ~384 kbps | Дябляж
Language                                 : Ukrainian
Service kind                             : Complete Main
Default                                  : Yes
Forced                                   : No

Audio #2
ID                                       : 3
Format                                   : AC-3
Format/Info                              : Audio Coding 3
Commercial name                          : Dolby Digital
Codec ID                                 : A_AC3
Duration                                 : 1 h 37 min
Bit rate mode                            : Constant
Bit rate                                 : 192 kb/s
Channel(s)                               : 2 channels
Channel layout                           : L R
Sampling rate                            : 48.0 kHz
Frame rate                               : 31.250 FPS (1536 SPF)
Bit depth                                : 16 bits
Compression mode                         : Lossy
Stream size                              : 133 MiB (1%)
Title                                    : , 2/0 (L,R) ch, ~192 kbps | K1
Language                                 : Ukrainian
Service kind                             : Complete Main
Default                                  : No
Forced                                   : No

Audio #3
ID                                       : 4
Format                                   : AC-3
Format/Info                              : Audio Coding 3
Commercial name                          : Dolby Digital
Codec ID                                 : A_AC3
Duration                                 : 1 h 37 min
Bit rate mode                            : Constant
Bit rate                                 : 256 kb/s
Channel(s)                               : 2 channels
Channel layout                           : L R
Sampling rate                            : 48.0 kHz
Frame rate                               : 31.250 FPS (1536 SPF)
Bit depth                                : 16 bits
Compression mode                         : Lossy
Stream size                              : 178 MiB (1%)
Title                                    : , 2/0 (L,R) ch, ~256 kbps | Три Крапки
Language                                 : Ukrainian
Service kind                             : Complete Main
Default                                  : No
Forced                                   : No

Audio #4
ID                                       : 5
Format                                   : XLL
Format/Info                              : Digital Theater Systems
Commercial name                          : -HD Master Audio
Codec ID                                 : A_DTS
Duration                                 : 1 h 37 min
Bit rate mode                            : Variable
Bit rate                                 : 2 883 kb/s
Channel(s)                               : 6 channels
Channel layout                           : C L R Ls Rs LFE
Sampling rate                            : 48.0 kHz
Frame rate                               : 93.750 FPS (512 SPF)
Bit depth                                : 24 bits
Compression mode                         : Lossless
Stream size                              : 1.96 GiB (10%)
Title                                    : -HD MA 5.1, ~2883 kbps
Language                                 : English
Default                                  : No
Forced                                   : No

Audio #5
ID                                       : 6
Format                                   : AC-3
Format/Info                              : Audio Coding 3
Commercial name                          : Dolby Digital
Codec ID                                 : A_AC3
Duration                                 : 1 h 37 min
Bit rate mode                            : Constant
Bit rate                                 : 192 kb/s
Channel(s)                               : 2 channels
Channel layout                           : L R
Sampling rate                            : 48.0 kHz
Frame rate                               : 31.250 FPS (1536 SPF)
Bit depth                                : 16 bits
Compression mode                         : Lossy
Stream size                              : 133 MiB (1%)
Title                                    : , 2/0 (L,R) ch, ~192 kbps
Language                                 : English
Service kind                             : Complete Main
Default                                  : No
Forced                                   : No

Audio #6
ID                                       : 7
Format                                   : AC-3
Format/Info                              : Audio Coding 3
Commercial name                          : Dolby Digital
Codec ID                                 : A_AC3
Duration                                 : 1 h 37 min
Bit rate mode                            : Constant
Bit rate                                 : 192 kb/s
Channel(s)                               : 2 channels
Channel layout                           : L R
Sampling rate                            : 48.0 kHz
Frame rate                               : 31.250 FPS (1536 SPF)
Bit depth                                : 16 bits
Compression mode                         : Lossy
Stream size                              : 133 MiB (1%)
Title                                    : , 2/0 (L,R) ch, ~192 kbps
Language                                 : English
Service kind                             : Complete Main
Default                                  : No
Forced                                   : No

Text #1
ID                                       : 8
Format                                   : PGS
Muxing mode                              : zlib
Codec ID                                 : S_HDMV/PGS
Codec ID/Info                            : Picture based subtitle format used on BDs/HD-DVDs
Duration                                 : 1 h 32 min
Bit rate                                 : 37.5 kb/s
Count of elements                        : 1618
Stream size                              : 24.8 MiB (0%)
Title                                    : Full
Language                                 : Ukrainian
Default                                  : Yes
Forced                                   : No

Text #2
ID                                       : 9
Format                                   : PGS
Muxing mode                              : zlib
Codec ID                                 : S_HDMV/PGS
Codec ID/Info                            : Picture based subtitle format used on BDs/HD-DVDs
Duration                                 : 1 h 32 min
Bit rate                                 : 40.9 kb/s
Count of elements                        : 1790
Stream size                              : 27.0 MiB (0%)
Title                                    : Full
Language                                 : English
Default                                  : No
Forced                                   : No
Світлини




За першу доріжку дякую UkrDub
За запис з К1 дякую пану Bohdan237
За доріжку з Три Крапки дякую пану taraskill1
За субтитри дякую пану richman
За постер дякую пану thefir

Джерело: &
Особиста оцінка: 9 - давно не бачив настільки якісне кіно


Авторський реліз (завантажувати можна без реєстрації)
 Трекер:    Зареєстрований   

Завантажити / скачати фільм українською



відео для новачків



 Зареєстрований:   2019-07-22 18:08
 Розмір:   19.55 GB 
 Оцінка фільму:   9.9/10 (Голосів: 16)
   
MakRA 
VIP


З нами з: 11.11.18
Востаннє: 27.09.20
Повідомлень: 1120

2019-07-22 18:38  
Ооо, улюблений фільм у даному жанрі. Не для любителів скаженого екшену)
Tranceliker 
Свій


З нами з: 30.03.10
Востаннє: 26.09.20
Повідомлень: 65

2019-07-22 18:55  
Так, класний фільм.
+380954897458 
VIP


З нами з: 02.06.17
Востаннє: 18.09.20
Повідомлень: 942

2019-07-22 22:29  
MakRA
Ви недооцінюєте любителів скаженого екшену! :-))) До того ж, екшен екшену різниця.

fatum69 
Частий відвідувач


З нами з: 10.12.16
Востаннє: 24.09.20
Повідомлень: 44

2019-07-24 12:19  
Класний фільм!
salemor 
Новенький


З нами з: 10.12.16
Востаннє: 26.09.20
Повідомлень: 1

2019-07-27 22:12  
Як вибирати аудіо (хочу в оригіналі послухати)?
Anonymous 







2019-07-27 22:22  
salemor написано:
Як вибирати аудіо (хочу в оригіналі послухати)?

в плеєрі вибрати в налаштуваннях режим аудіо і вибрати мову

Ваш часовий пояс: GMT + 2 Години

Нова тема   Відповісти