Шкіряне обличчя (Техаська різанина бензопилою) / Leatherface (2017) 1080p H.265 Eng | Sub Ukr/Eng

Нові коментарі

Нова тема   Відповісти
Автор Повідомлення
Anonymous 







2019-07-21 22:19  
Шкіряне обличчя (Техаська різанина бензопилою) / Leatherface (2017) 1080p H.265 Ukr/Eng | Sub Ukr/Eng

Шкіряне обличчя (Техаська різанина бензопилою) / Leatherface (2017) 1080p H.265 Eng | Sub Ukr/Eng


Жанр: жахи, трилер, кримінальний
Країна: США
Кінокомпанія: Campbell Grobman Films, LF2 Productions, Lionsgate, Mainline Pictures, Millennium Films
Режисер: Олександр Бустильо / Alexandre Bustillo, Жюльєн Морі / Julien Maury
Актори: Лілі Тейлор, Стівен Дорфф, Сем Коулман, Ніколь Ендрюс, Сем Страйк, Джуліан Костов, Ванесса Грасс, Джеймс Блур, Йен Фішер, Борис Кабакчієв

Сюжет:
Четверо підлітків втікають з божевільні і викрадають молоду медсестру. Їх переслідує загін поліції, очолюваний не менш божевільниим Хелом Хартманом. Один з викрадачів йде шляхом, повним трагедій і жахів, який перетворить його в маніяка на ім'я Шкіряне обличчя.

Тривалість: 01:27:42
Якість:

Відео:
кодек: H.265 (HEVC)
розмір кадру: 1920 x 808
бітрейт: 9 588 кб/с
бітова глибина: 10 біт

Увага! Перед завантаженням переконайтесь, що ваш пристрій відтворення (та/або ПЗ) підтримує H.265 (HEVC)

Аудіо # 1:
мова: українська
переклад: професійний дубльований
кодек: AC-3 2.0
бітрейт: 192 кб/с

Аудіо # 2:
мова: англійська
переклад: оригінал
кодек: AC-3 5.1
бітрейт: 448 кб/с

Субтитри # 1: (Full by [t.me/SubAutumn], редагування igor911)
мова: українська
тип: програмні (м'які)
формат: *.srt

Субтитри # 2-4: (Full, SDH, SDH-Colored)
мова: англійська
тип: програмні (м'які)
формат: *.srt


Info
Код:
General
Unique ID                                : 219870427274569269226027414567527000901 (0xA5698104A88A219E695252AC04862B45)
Complete name                            : Leatherface (2017) 1080p H.265 [UKR_ENG] [Hurtom].
Format                                   :
Format version                           : Version 4
File size                                : 6.27 GiB
Duration                                 : 1 h 27 min
Overall bit rate                         : 10.2 Mb/s
Movie name                               : Шкіряне обличчя (Техаська різанина бензопилою) / Leatherface (2017)
Encoded date                             : UTC 2019-10-01 07:56:01
Writing application                      : v20.0.0 ('I Am The Sun') 64-bit
Writing library                          : libebml v1.3.5 + v1.4.8
Cover                                    : Yes
Attachments                              : cover.jpg

Video
ID                                       : 1
Format                                   : HEVC
Format/Info                              : High Efficiency Video Coding
Format profile                           : Main [email protected]@High
Codec ID                                 : V_MPEGH/ISO/HEVC
Duration                                 : 1 h 27 min
Bit rate                                 : 9 588 kb/s
Width                                    : 1 920 pixels
Height                                   : 808 pixels
Display aspect ratio                     : 2.40:1
Frame rate mode                          : Constant
Frame rate                               : 23.976 (24000/1001) FPS
Color space                              : YUV
Chroma subsampling                       : 4:2:0
Bit depth                                : 10 bits
Bits/(Pixel*Frame)                       : 0.258
Stream size                              : 5.87 GiB (94%)
Title                                    : Шкіряне обличчя (Техаська різанина бензопилою) / Leatherface (2017)
Writing library                          : x265 2.9+9-f74003e88622:[Windows][GCC 8.2.0][64 bit] 10bit
Encoding settings                        : cpuid=1111039 / frame-threads=13 / numa-pools=12 / wpp / no-pmode / no-pme / no-psnr / no-ssim / log-level=3 / input-csp=1 / input-res=1920x808 / interlace=0 / total-frames=0 / level-idc=41 / high-tier=1 / uhd-bd=0 / ref=5 / allow-non-conformance / no-repeat-headers / annexb / no-aud / no-hrd / info / hash=0 / no-temporal-layers / open-gop / min-keyint=23 / keyint=240 / gop-lookahead=0 / bframes=8 / b-adapt=2 / b-pyramid / bframe-bias=0 / rc-lookahead=60 / lookahead-slices=4 / scenecut=40 / radl=0 / no-intra-refresh / ctu=64 / min-cu-size=8 / rect / amp / max-tu-size=32 / tu-inter-depth=4 / tu-intra-depth=4 / limit-tu=0 / rdoq-level=2 / dynamic-rd=0.00 / no-ssim-rd / signhide / no-tskip / nr-intra=0 / nr-inter=0 / no-constrained-intra / no-strong-intra-smoothing / max-merge=5 / limit-refs=2 / limit-modes / me=3 / subme=7 / merange=57 / temporal-mvp / weightp / weightb / no-analyze-src-pics / deblock=-3:-3 / no-sao / no-sao-non-deblock / rd=6 / no-early-skip / rskip / no-fast-intra / no-tskip-fast / no-cu-lossless / b-intra / no-splitrd-skip / rdpenalty=0 / psy-rd=2.00 / psy-rdoq=1.00 / no-rd-refine / no-lossless / cbqpoffs=0 / crqpoffs=0 / rc=crf / crf=19.0 / qcomp=0.70 / qpstep=4 / stats-write=0 / stats-read=0 / vbv-maxrate=50000 / vbv-bufsize=50000 / vbv-init=0.9 / crf-max=0.0 / crf-min=0.0 / ipratio=1.40 / pbratio=1.30 / aq-mode=2 / aq-strength=1.00 / no-cutree / zone-count=0 / no-strict-cbr / qg-size=32 / no-rc-grain / qpmax=69 / qpmin=0 / no-const-vbv / sar=1 / overscan=0 / videoformat=5 / range=0 / colorprim=1 / transfer=1 / colormatrix=1 / chromaloc=0 / display-window=0 / max-cll=0,0 / min-luma=0 / max-luma=1023 / log2-max-poc-lsb=8 / vui-timing-info / vui-hrd-info / slices=1 / no-opt-qp-pps / no-opt-ref-list-length-pps / no-multi-pass-opt-rps / scenecut-bias=0.05 / no-opt-cu-delta-qp / aq-motion / no-hdr / no-hdr-opt / no-dhdr10-opt / no-idr-recovery-sei / analysis-reuse-level=5 / scale-factor=0 / refine-intra=0 / refine-inter=0 / refine-mv=0 / no-limit-sao / ctu-info=0 / no-lowpass-dct / refine-mv-type=0 / copy-pic=1 / max-ausize-factor=1.0 / no-dynamic-refine / no-single-sei
Default                                  : Yes
Forced                                   : No
Color range                              : Limited
Color primaries                          : BT.709
Transfer characteristics                 : BT.709
Matrix coefficients                      : BT.709

Audio #1
ID                                       : 2
Format                                   : AC-3
Format/Info                              : Audio Coding 3
Commercial name                          : Dolby Digital
Codec ID                                 : A_AC3
Duration                                 : 1 h 27 min
Bit rate mode                            : Constant
Bit rate                                 : 192 kb/s
Channel(s)                               : 2 channels
Channel layout                           : L R
Sampling rate                            : 48.0 kHz
Frame rate                               : 31.250 FPS (1536 SPF)
Bit depth                                : 16 bits
Compression mode                         : Lossy
Stream size                              : 120 MiB (2%)
Title                                    : / 2.0 Ch / 192 kbps / ПД / Pie Post Production
Language                                 : Ukrainian
Service kind                             : Complete Main
Default                                  : Yes
Forced                                   : Yes

Audio #2
ID                                       : 3
Format                                   : AC-3
Format/Info                              : Audio Coding 3
Commercial name                          : Dolby Digital
Codec ID                                 : A_AC3
Duration                                 : 1 h 27 min
Bit rate mode                            : Constant
Bit rate                                 : 448 kb/s
Channel(s)                               : 6 channels
Channel layout                           : L R C LFE Ls Rs
Sampling rate                            : 48.0 kHz
Frame rate                               : 31.250 FPS (1536 SPF)
Bit depth                                : 16 bits
Compression mode                         : Lossy
Stream size                              : 281 MiB (4%)
Title                                    : / 5.1 Ch / 448 kbps / Original
Language                                 : English
Service kind                             : Complete Main
Default                                  : No
Forced                                   : No

Text #1
ID                                       : 4
Format                                   : UTF-8
Codec ID                                 : S_TEXT/UTF8
Codec ID/Info                            : UTF-8 Plain Text
Duration                                 : 1 h 24 min
Bit rate                                 : 58 b/s
Count of elements                        : 732
Stream size                              : 36.4 KiB (0%)
Title                                    : Full by [t.me/SubAutumn], edited by igor911
Language                                 : Ukrainian
Default                                  : No
Forced                                   : No

Text #2
ID                                       : 5
Format                                   : UTF-8
Codec ID                                 : S_TEXT/UTF8
Codec ID/Info                            : UTF-8 Plain Text
Duration                                 : 1 h 21 min
Bit rate                                 : 36 b/s
Count of elements                        : 728
Stream size                              : 21.5 KiB (0%)
Title                                    : Full
Language                                 : English
Default                                  : No
Forced                                   : No

Text #3
ID                                       : 6
Format                                   : UTF-8
Codec ID                                 : S_TEXT/UTF8
Codec ID/Info                            : UTF-8 Plain Text
Duration                                 : 1 h 23 min
Bit rate                                 : 46 b/s
Count of elements                        : 1180
Stream size                              : 28.4 KiB (0%)
Title                                    : SDH
Language                                 : English
Default                                  : No
Forced                                   : No

Text #4
ID                                       : 7
Format                                   : UTF-8
Codec ID                                 : S_TEXT/UTF8
Codec ID/Info                            : UTF-8 Plain Text
Duration                                 : 1 h 23 min
Bit rate                                 : 81 b/s
Count of elements                        : 1171
Stream size                              : 49.8 KiB (0%)
Title                                    : SDH-Colored
Language                                 : English
Default                                  : No
Forced                                   : No

Menu
00:00:00.000                             : :00:00:00.000
00:04:27.476                             : :00:04:27.476
00:09:32.238                             : :00:09:32.238
00:15:17.917                             : :00:15:17.917
00:21:39.840                             : :00:21:39.840
00:26:36.595                             : :00:26:36.595
00:31:09.493                             : :00:31:09.493
00:35:54.235                             : :00:35:54.235
00:41:50.591                             : :00:41:50.591
00:48:27.738                             : :00:48:27.738
00:53:34.753                             : :00:53:34.753
00:57:36.620                             : :00:57:36.620
01:05:27.173                             : :01:05:27.173
01:09:48.600                             : :01:09:48.601
01:14:59.078                             : :01:14:59.078
01:18:26.660                             : :01:18:26.660
Світлини





Джерело: &
Особиста оцінка: 0 - не дивився


 Трекер:    Зареєстрований   

Завантажити / скачати фільм українською



відео для новачків



 Зареєстрований:   2019-10-03 20:51
 Розмір:   6.27 GB 
 Оцінка фільму:   10/10 (Голосів: 3)
   
11FrYkT 
Модератор відео


З нами з: 20.02.11
Востаннє: 04.08.20
Повідомлень: 6966

2019-07-23 11:24  
Anonymous , хоч 1 скрін з сабами
bot 
робот


З нами з: 30.09.07
Востаннє: 26.05.05
Повідомлень: 25161

2019-07-23 11:24  
Тему перенесено з Фільми в HD до форуму Фільми


11FrYkT

Anonymous 







2019-07-23 22:53  
11FrYkT
Вибачте. Додав.

Anonymous 







2019-10-03 20:51  
Додано укр. доріжку
bot 
робот


З нами з: 30.09.07
Востаннє: 26.05.05
Повідомлень: 25161

2019-10-03 20:51  
Тему перенесено з Фільми до форуму Фільми в HD


-Star-Lord-

Ваш часовий пояс: GMT + 2 Години

Нова тема   Відповісти