Аладдін / Aladdin (2019) UHD Remux 4K 2160p HDR H.265 Ukr/Eng | Sub Eng

Нові коментарі

Нова тема   Відповісти
Автор Повідомлення
Anonymous 







2019-07-20 17:56  
Аладдін / Aladdin (2019) UHD Remux 4K 2160p HDR H.265 Ukr/Eng | Sub Eng

Аладдін / Aladdin (2019) UHD Remux 4K 2160p HDR H.265 Ukr/Eng | Sub Eng
Постер
Аладдін / Aladdin (2019) UHD Remux 4K 2160p HDR H.265 Ukr/Eng | Sub Eng
Жанр: комедія, мюзикл, пригодницький, романтика, сімейний, фентезі
Країна: США



Кінокомпанія: Walt Disney Pictures
Режисер: Ґай Річі
Актори: Мена Массуд, Наомі Скотт, Уілл Сміт, Біллі Магнуссен, Алан Тьюдік, Назим ПЕДРАДА, Марван Кензарі, Нуман Аджар, Френк Велкер, Навід Негабан

Сюжет:
Аграба – місто контрастів. У ньому живе дуже багато бідняків, які ледве зводять кінці з кінцями, іноді навіть переступаючи закон. Й у них на очах завжди є султанський палац, де люди явно не бідують. Одна випадкова зустріч злодюжки Аладіна із принцесою Жасмін вселила в серце хлопця любов. Але хто він, а хто вона? Його дріб'язкового стану явно не вистачить для того, щоб підкорити серце дівчини, яким би щирим і добрим хлопець не був. Але чистота Аладдіна знадобилася візирю Джафару – хлопець може допомогти йому добути бажану лампу із джином, яка знаходиться в зачарованій печері. Хлопцеві дійсно під силу її здобути – але йому ж необов'язково її віддавати Джафару, можна забрати джина собі, щоб той втілював усі бажання в життя.


Тривалість: 02:02:03
Якість: UHD Remux 4K 2160p
Відео:
кодек: H.265 (HEVC)
розмір кадру: 3840x2160
бітрейт: 49 Мб/с
бітова глибина: 10 біт
кольоровий простір: BT.2020 (HDR)

Аудіо # 1:
мова: українська
переклад: професійний дубльований | студія LeDoyen
кодек: -HD MA 5.1
бітрейт: 3967 кб/с

Аудіо # 2:
мова: українська
переклад: професійний дубльований | студія LeDoyen
кодек: 5.1
бітрейт: 640 кб/с

Аудіо # 3:
мова: англійська
переклад: оригінал
кодек: TrueHD + Atmos 7.1
бітрейт: 4877 кб/с

Аудіо # 4:
мова: англійська
переклад: оригінал
кодек: 5.1
бітрейт: 640 кб/с

Субтитри: (Full, SDH)
мова: англійська
тип: програмні (м'які)
формат: *.srt
Info
Код:
General
Complete name                            : Aladdin (2019) UHD Remux 4K 2160p HDR H.265 (HEVC) [UKR_ENG] [ViDeO_Hurtom].
Format                                   :
Format version                           : Version 4
File size                                : 52.9 GiB
Duration                                 : 2 h 7 min
Overall bit rate mode                    : Variable
Overall bit rate                         : 59.2 Mb/s
Movie name                               : Aladdin (2019) UHD Remux 4K 2160p HDR H.265 (HEVC) [UKR_ENG] [ViDeO_Hurtom]
Encoded date                             : UTC 2019-09-02 19:17:10
Writing application                      : v30.1.0 ('Forever And More') 64-bit
Writing library                          : libebml v1.3.6 + v1.4.9
Attachments                              : 1907201751095606_f0_0.jpg

Video
ID                                       : 1
Format                                   : HEVC
Format/Info                              : High Efficiency Video Coding
Commercial name                          : HDR10
Format profile                           : Main [email protected]@High
Codec ID                                 : V_MPEGH/ISO/HEVC
Duration                                 : 2 h 7 min
Bit rate                                 : 49.0 Mb/s
Width                                    : 3 840 pixels
Height                                   : 2 160 pixels
Display aspect ratio                     : 16:9
Frame rate mode                          : Constant
Frame rate                               : 23.976 (24000/1001) FPS
Color space                              : YUV
Chroma subsampling                       : 4:2:0 (Type 2)
Bit depth                                : 10 bits
Bits/(Pixel*Frame)                       : 0.246
Stream size                              : 43.8 GiB (83%)
Writing library                          : ATEME Titan File 3.9.0 (4.9.0.0)
Language                                 : English
Default                                  : Yes
Forced                                   : No
Color range                              : Limited
Color primaries                          : BT.2020
Transfer characteristics                 : PQ
Matrix coefficients                      : BT.2020 non-constant
Mastering display color primaries        : Display P3
Mastering display luminance              : min: 0.0050 cd/m2, max: 4000 cd/m2

Audio #1
ID                                       : 2
Format                                   : XLL
Format/Info                              : Digital Theater Systems
Commercial name                          : -HD Master Audio
Codec ID                                 : A_DTS
Duration                                 : 2 h 7 min
Bit rate mode                            : Variable
Bit rate                                 : 3 967 kb/s
Channel(s)                               : 6 channels
Channel layout                           : C L R Ls Rs LFE
Sampling rate                            : 48.0 kHz
Frame rate                               : 93.750 FPS (512 SPF)
Bit depth                                : 24 bits
Compression mode                         : Lossless
Stream size                              : 3.55 GiB (7%)
Title                                    : -HD MA, 6 ch, 3967 Кбт/с
Language                                 : Ukrainian
Default                                  : Yes
Forced                                   : No

Audio #2
ID                                       : 3
Format                                   : AC-3
Format/Info                              : Audio Coding 3
Commercial name                          : Dolby Digital
Codec ID                                 : A_AC3
Duration                                 : 2 h 7 min
Bit rate mode                            : Constant
Bit rate                                 : 640 kb/s
Channel(s)                               : 6 channels
Channel layout                           : L R C LFE Ls Rs
Sampling rate                            : 48.0 kHz
Frame rate                               : 31.250 FPS (1536 SPF)
Bit depth                                : 16 bits
Compression mode                         : Lossy
Stream size                              : 586 MiB (1%)
Title                                    : , 6 ch, 640 Кбт/с
Language                                 : Ukrainian
Service kind                             : Complete Main
Default                                  : No
Forced                                   : No

Audio #3
ID                                       : 4
Format                                   : MLP FBA 16-ch
Format/Info                              : Meridian Lossless Packing FBA with 16-channel presentation
Commercial name                          : Dolby TrueHD with Dolby Atmos
Codec ID                                 : A_TRUEHD
Duration                                 : 2 h 7 min
Bit rate mode                            : Variable
Bit rate                                 : 4 877 kb/s
Maximum bit rate                         : 9 060 kb/s
Channel(s)                               : 8 channels
Channel layout                           : L R C LFE Ls Rs Lb Rb
Sampling rate                            : 48.0 kHz
Frame rate                               : 1 200.000 FPS (40 SPF)
Compression mode                         : Lossless
Stream size                              : 4.36 GiB (8%)
Title                                    : TrueHD, 8 ch, 4877 Кбт/с
Language                                 : English
Default                                  : No
Forced                                   : No
Number of dynamic objects                : 13
Bed channel count                        : 1 channel
Bed channel configuration                : LFE

Audio #4
ID                                       : 5
Format                                   : AC-3
Format/Info                              : Audio Coding 3
Commercial name                          : Dolby Digital
Codec ID                                 : A_AC3
Duration                                 : 2 h 7 min
Bit rate mode                            : Constant
Bit rate                                 : 640 kb/s
Channel(s)                               : 6 channels
Channel layout                           : L R C LFE Ls Rs
Sampling rate                            : 48.0 kHz
Frame rate                               : 31.250 FPS (1536 SPF)
Bit depth                                : 16 bits
Compression mode                         : Lossy
Stream size                              : 586 MiB (1%)
Title                                    : , 6 ch, 640 Кбт/с
Language                                 : English
Service kind                             : Complete Main
Default                                  : No
Forced                                   : No

Text #1
ID                                       : 6
Format                                   : UTF-8
Codec ID                                 : S_TEXT/UTF8
Codec ID/Info                            : UTF-8 Plain Text
Duration                                 : 2 h 7 min
Bit rate                                 : 65 b/s
Count of elements                        : 2113
Stream size                              : 61.2 KiB (0%)
Title                                    : Full
Language                                 : English
Default                                  : No
Forced                                   : No

Text #2
ID                                       : 7
Format                                   : UTF-8
Codec ID                                 : S_TEXT/UTF8
Codec ID/Info                            : UTF-8 Plain Text
Duration                                 : 2 h 7 min
Bit rate                                 : 74 b/s
Count of elements                        : 2435
Stream size                              : 69.7 KiB (0%)
Title                                    : SDH
Language                                 : English
Default                                  : No
Forced                                   : No

Menu
00:00:00.000                             : en:"Arabian Nights"
00:04:49.372                             : en:"One Jump Ahead"
00:13:04.659                             : en:Is This Where You Live?
00:18:55.760                             : en:"Speechless"
00:26:18.410                             : en:I Have My Ways
00:30:26.324                             : en:Cave Of Wonders
00:39:51.889                             : en:"Friend Like Me"
00:54:50.162                             : en:"Prince Ali"
01:02:18.652                             : en:This Is A Party
01:09:19.489                             : en:"A Whole New World"
01:21:53.033                             : en:Where Is The Lamp?
01:33:51.417                             : en:I Wish To Be Sultan Of Agrabah
01:38:48.381                             : en:Stand With The People Of Agrabah
01:45:19.396                             : en:Most Powerful In The Universe
01:53:07.030                             : en:Your Last Wish
01:59:38.463                             : en:End Credits
Скріншоти

Джерело: &
Подяка пану Hanway за синхронізацію звуку.
Постер: Ham_R
Особиста оцінка: 0 - не дивився
Увага! Перед завантаженням переконайтесь, що ваш пристрій відтворення (та/або ПЗ) підтримує H.265 (HEVC)


Золотий реліз (завантажене не впливає на рейтинг)
 Трекер:    Зареєстрований   

Завантажити / скачати фільм українською



відео для новачків



 Зареєстрований:   2019-09-02 23:58
 Розмір:   52.91 GB 
 Оцінка фільму:   9.5/10 (Голосів: 15)
   
Інші релізи
   Аладдін / Aladdin (2019) 1080p 3D [Half OverUnder] Ukr/Eng | Sub Eng [16:9 Cropped] дядя1111  8 / 2   8.58 GB   2019-09-14 16:11 
   Аладдін / Aladdin (2019) UHD mini 4K 2160p HDR x265 Ukr/Eng | Sub Eng Babamin  10 / 0   16.58 GB   2019-09-07 10:36 
   Аладдін / Aladdin (2019) 1080p H.265 Ukr/Eng | Sub Eng -Star-Lord-  28 / 1   8.51 GB   2019-09-03 18:57 
   Аладдін / Aladdin (2019) antik_2008  82 / 1   2.18 GB   2019-09-01 00:39 
   Аладдін / Aladdin (2019) Remux 1080p Ukr/Eng | Sub Eng antik_2008  36 / 0   33.78 GB   2019-09-01 00:01 
   Аладдін / Aladdin (2019) 1080p Ukr/Eng | Sub Eng antik_2008  54 / 1   16.68 GB   2019-08-31 22:54 
   Аладдін / Aladdin (2019) 1080p H.265 Ukr/Eng | Sub Eng antik_2008  39 / 3   10.41 GB   2019-08-31 22:19 
   Аладдін / Aladdin (2019) 720p Ukr/Eng | Sub Eng 11FrYkT  115 / 1   6.71 GB   2019-08-31 20:21 
   Аладдін / Aladdin (2019) AVC Ukr/Eng | Sub Eng 11FrYkT  93 / 0   2.41 GB   2019-08-31 17:22 
madagaskar1 
VIP


З нами з: 08.05.14
Востаннє: 15.09.19
Повідомлень: 760

2019-07-20 22:28  
вау а дата коли?Happy
leicheman 
Відео Гуртом - фільмокрай
Відео Гуртом - фільмокрай


З нами з: 03.07.14
Востаннє: 16.09.19
Повідомлень: 3953

2019-07-20 22:43  
madagaskar1 написано:
вау а дата коли?

дати ще нема, передзамовлення на тюнсі без неї.

VIKTOtor 
Поважний учасник


З нами з: 02.01.12
Востаннє: 15.09.19
Повідомлень: 150

2019-07-20 23:13  
А хтось знає, у титрах з українських співачок хтось співав із Зейном? В Росії Юліана Карпулова записала мультімовну версію, та офіційно чомусь не випустили, тільки у фільмі лишили
alex2 
Свій


З нами з: 01.02.12
Востаннє: 14.09.19
Повідомлень: 147

2019-07-22 10:33  
мульт шикарний, 2 рази в аймаксі)) але перекладати пісні - то дно.
11FrYkT 
Модератор відео


З нами з: 20.02.11
Востаннє: 15.09.19
Повідомлень: 6182

2019-07-22 11:13  
авц+720
Igor_kachynskyy 
Новенький


З нами з: 03.01.18
Востаннє: 15.09.19
Повідомлень: 15

2019-07-22 11:41  
Ого крутяк, респект тобі!😉😊
vla_dos 
Частий відвідувач


З нами з: 03.04.15
Востаннє: 15.09.19
Повідомлень: 44

2019-07-22 22:10  
alex2
Ну фільм-то перш за все дитячий. Не будуть же діти субтитри читати?
Для того Дісней і замовляє локалізацію: зробити зрозумілим і, по можливості, зберегти колорит.

alex2 
Свій


З нами з: 01.02.12
Востаннє: 14.09.19
Повідомлень: 147

2019-07-23 12:10  
vla_dos
може й такеHappy невже там прям такий СЕНС у тих піснях для дітей? забув уже який мультфільм був, де не перекладали пісні й усе було чудово.

Nahalist 
Поважний учасник


З нами з: 13.12.13
Востаннє: 13.09.19
Повідомлень: 195

2019-07-23 13:03  
Геть не люблю мюзикли. Хоча цей фільм сподобався, добре зняли, особисто в мене без зауважень.
Luzohid 
Частий відвідувач


З нами з: 14.09.15
Востаннє: 15.09.19
Повідомлень: 40

2019-07-23 15:58  
Цікаво, чому Вілл Смітт не погодився зніматися в другій Незалежності, а тут погодився. Більше заплатили мабуть. Happy
Може хто не знає, то світові збори цього Аладдіна перевершили першого Гаріка. І то ще не все пораховано, може і Темного Лицаря перевершить.

Silver Warden 
Поважний учасник


З нами з: 02.01.18
Востаннє: 15.09.19
Повідомлень: 241

2019-07-23 18:02  
alex2
Якби у піснях не було сенсу, їх би не писали та не додавали до фільму. Для дітей варто дублювати, бо чим наші діти гірше за інших? Чому американці, іспанці, французи, тощо, мають можливість розуміти все, включно з піснями, а нас цього позбавляти?

alonzo 
VIP


З нами з: 30.08.15
Востаннє: 15.09.19
Повідомлень: 286

2019-07-24 19:37  
Luzohid написано:
Цікаво, чому Вілл Смітт не погодився зніматися в другій Незалежності, а тут погодився.

тому що він заспівав як циган за батька , от йому і сказали - добре обійдемся без тебе , і вставили його портрет і нагородили посмертно.

alex2 
Свій


З нами з: 01.02.12
Востаннє: 14.09.19
Повідомлень: 147

2019-07-25 10:17  
Silver Warden
Ви впевнені, що "іспанці, французи" і тд взагалі перекладають фільми?) не кажучи вже про пісні.

Silver Warden 
Поважний учасник


З нами з: 02.01.18
Востаннє: 15.09.19
Повідомлень: 241

2019-07-25 13:41  
alex2
На 100%, принаймні у випадку тих, які спрямовані на дітей. Аладдін та Король Лев мають аж *два* дубляжі іспанською, бо дублює як Іспанія, так і Мексика, окремо. З піснями. Так майже завжди.

DDBj 
VIP


З нами з: 09.01.12
Востаннє: 14.09.19
Повідомлень: 645

2019-07-25 14:54  
alex2 написано:
Ви впевнені, що "іспанці, французи" і тд взагалі перекладають фільми?) не кажучи вже про пісні.

Господи, є ж ґуґл, є вікіпедія, де описані для кожної країни локалізації, пісні, вокалісти, іноді навіть тексти пісень. Але ж треба вдягнути біле пальто і ляпнути "А ви впевнені..." Впевнені, бо ці пісні ґуґляться три секунди.
Живеш, як у серіялі "Роки й роки".
"А ви впевнені, що Земля не пласка? А доведіть..."

Luzohid 
Частий відвідувач


З нами з: 14.09.15
Востаннє: 15.09.19
Повідомлень: 40

2019-07-29 22:32  
Блін, чого ви до цих пісень вчепилися, не один хрін. Вже збори нарахували - перевершили Темного Лицаря аж на 5 лямів. о_О
Смітт мабуть не чекав, що в такому кіно зніметься колись Happy Оце заробив капусти ....

KeryaS 
Поважний учасник


З нами з: 01.09.14
Востаннє: 15.09.19
Повідомлень: 199

2019-08-08 23:39  
alex2 написано:
але перекладати пісні - то дно.

Взагалі перекладати це дно, дивіться арамейською

Purlogin 
Свій


З нами з: 27.05.15
Востаннє: 12.08.19
Повідомлень: 60

2019-08-12 00:13  
Взагалі суперове, та якби не Аладдін, то "The Hobbit: The Desolation of Smaug" ідосі сидів би в кращій 50-тці касових зборів. А зараз він вилетів на 51-ше Sad (1)
bot 
робот


З нами з: 30.09.07
Востаннє: 26.05.05
Повідомлень: 22033

2019-09-02 23:58  
Тему перенесено з Анонси релізів до форуму Фільми в HD


antik_2008

Ваш часовий пояс: GMT + 2 Години

Нова тема   Відповісти