Новий романтик / The New Romantic (2018) 1080p Eng | Sub Ukr/Eng

Нові коментарі

Нова тема   Відповісти
Автор Повідомлення
Anonymous 







2019-07-20 14:51  
Новий романтик / The New Romantic (2018) 1080p Eng | Sub Ukr/Eng

Новий романтик / The New Romantic (2018) 1080p Eng | Sub Ukr/Eng
Оригінальний постер:

Новий романтик / The New Romantic (2018) 1080p Eng | Sub Ukr/Eng

Жанр: драма, мелодрама, комедія
Країна: Канада



Кінокомпанія: Drive Films, Independent Edge Films, JoBro Productions & Film Finance
Режисер: Карлі Стоун / Carly Stone
Актори: Джессіка Барден / Jessica Barden, Гейлі Лоу / Hayley Law, Бретт Дір / Brett Dier, Каміла Мендес / Camila Mendes, Тімм Шарп / Timm Sharp, Еван Джогіа / Avan Jogia, Айві Матесон / Ivy Matheson, Єва Лінк / Eva Link, Грег Ованессян / Greg Hovanessian, Вінні Беннетт / Vinnie Bennett та інші

Сюжет:
Студентка Блейк втомилася ходити на побачення з однолітками, які нічого не можуть їй запропонувати. Знайома Морган пропонує зустрічатися з дорослими чоловіками заради подарунків та інших радощів життя.

Це історія дівчини, яка впевнена, що романтика відносин зникла. Чи, можливо, вона помиляється?
Офіційний трейлер:

Вікова категорія: 16+

Тривалість: 01:21:40
Якість: 1080p
Відео:
кодек:
розмір кадру: 1916 х 796
бітрейт: 4590 кб/с

Аудіо:
мова: англійська
переклад: оригінал
кодек: 5.1
бітрейт: 384 кб/с

Субтитри # 1:
мова: українська
тип: програмні (м'які)
формат: *.srt
переклад: Наталія Наконечна

Субтитри # 2:
мова: англійська
тип: програмні (м'які)
формат: *.srt
Info
Код:

Complete name               : The New Romantic (2018) [Eng sub.Ukr,Eng] 1080p [Hurtom].
Format                      :
Format version              : Version 4
File size                   : 2.84 GiB
Duration                    : 1 h 21 min
Overall bit rate            : 4 976 kb/s
Movie name                  : Новий романтик / The New Romantic (2018) [Eng sub.Ukr,Eng] 1080p [Hurtom]
Encoded date                : UTC 2019-07-20 12:05:17
Writing application         : v35.0.0 ('All The Love In The World') 64-bit
Writing library             : libebml v1.3.9 + v1.5.2
Cover                       : Yes
Attachments                 : cover.jpg

Video
ID                          : 1
Format                      : AVC
Format/Info                 : Advanced Video Codec
Format profile              : [email protected]
Format settings             : CABAC / 5 Ref Frames
Format settings, CABAC      : Yes
Format settings, Reference  : 5 frames
Codec ID                    : V_MPEG4/ISO/AVC
Duration                    : 1 h 21 min
Bit rate                    : 4 590 kb/s
Width                       : 1 916 pixels
Height                      : 796 pixels
Display aspect ratio        : 2.40:1
Frame rate mode             : Constant
Frame rate                  : 23.976 (24000/1001) FPS
Color space                 : YUV
Chroma subsampling          : 4:2:0
Bit depth                   : 8 bits
Scan type                   : Progressive
Bits/(Pixel*Frame)          : 0.126
Stream size                 : 2.62 GiB (92%)
Title                       : Новий романтик / The New Romantic (2018) 1080p [iTunes]
Language                    : English
Default                     : Yes
Forced                      : No
Color range                 : Limited
Color primaries             : BT.709
Transfer characteristics    : BT.709
Matrix coefficients         : BT.709

Audio
ID                          : 2
Format                      : AC-3
Format/Info                 : Audio Coding 3
Commercial name             : Dolby Digital
Codec ID                    : A_AC3
Duration                    : 1 h 21 min
Bit rate mode               : Constant
Bit rate                    : 384 kb/s
Channel(s)                  : 6 channels
Channel layout              : L R C LFE Ls Rs
Sampling rate               : 48.0 kHz
Frame rate                  : 31.250 FPS (1536 SPF)
Bit depth                   : 16 bits
Compression mode            : Lossy
Stream size                 : 224 MiB (8%)
Title                       : Original, 5.1 384 Kbps
Language                    : English
Service kind                : Complete Main
Default                     : Yes
Forced                      : No

Text #1
ID                          : 3
Format                      : UTF-8
Codec ID                    : S_TEXT/UTF8
Codec ID/Info               : UTF-8 Plain Text
Duration                    : 1 h 21 min
Bit rate                    : 91 b/s
Count of elements           : 1146
Stream size                 : 54.7 KiB (0%)
Title                       : Ukr Full [iTunes]
Language                    : Ukrainian
Default                     : Yes
Forced                      : Yes

Text #2
ID                          : 4
Format                      : UTF-8
Codec ID                    : S_TEXT/UTF8
Codec ID/Info               : UTF-8 Plain Text
Duration                    : 1 h 18 min
Bit rate                    : 63 b/s
Count of elements           : 1093
Stream size                 : 36.0 KiB (0%)
Title                       : Eng Full
Language                    : English
Default                     : No
Forced                      : No
Скріншоти


Джерело: &


 Трекер:    Зареєстрований   

Завантажити / скачати фільм українською



відео для новачків



 Зареєстрований:   2019-07-20 14:51
 Розмір:   2.84 GB 
 Оцінка фільму:   9.3/10 (Голосів: 7)
 ЗАЛИШАЙТЕСЬ ЯКОМОГА ДОВШЕ НА РОЗДАЧІ! ЗАВАНТАЖИВ САМ - ДАЙ ЗАВАНТАЖИТИ ІНШИМ!
   
Ваш часовий пояс: GMT + 2 Години

Нова тема   Відповісти