Матрьошка (Сезон 1, Серія 1-5) / Russian Doll (Season 1, Episodes 1-5) (2019) 1080p Ukr/Eng | Sub Ukr/Eng

Нові коментарі

Нова тема   Відповісти
Автор Повідомлення
dragheart 
Свій


З нами з: 27.01.16
Востаннє: 22.08.19
Повідомлень: 66

2019-07-20 15:12  
Матрьошка (Сезон 1, Серія 1-5) / Russian Doll (Season 1, Episodes 1-5) (2019) 1080p Ukr/Eng | Sub Ukr/Eng

Матрьошка (Сезон 1, Серія 1-5) / Russian Doll (Season 1, Episodes 1-5) (2019) 1080p Ukr/Eng | Sub Ukr/Eng


Жанр: комедія, драма, детектив, фантастика
Країна: США



Кінокомпанія: 3 Arts Entertainment, Jax Media, Netflix
Режисер: Леслі Гедленд, Наташа Ліонн, Джемі Беббіт
Актори: Наташа Ліонн, Грета Лі, Джордж Алой, Елізабет Ешлі, Чарлі Барнет, Ребекка Хендерсон, Джеремі Бобб

Сюжет:
Дівчина на ім'я Надя потрапляє в таємничу часову петлю, яка змушує її неодноразово відвідувати одну і ту ж вечірку в Нью-Йорку і в кінці неї вмирати, прокидаючись вранці неушкодженою.


Тривалість: 1 серія: 25:00 (цілком серій: 5/8)
Перелік серій
1.Nothing in This World Is Easy
2.The Great Escape
3.A Warm Body
4.Alan's Routine
5.Superiority Complex
6.Reflection
7.The Way Out
8.Ariadne
Якість:
Відео:
кодек:
розмір кадру: 1 920 х 1080
бітрейт: 4 420 кб/с

Аудіо # 1:
мова: українська
переклад: багатоголосий закадровий | DubLiCat (Olegolas, Оля Ілєнко, Тетяна Рябова)
кодек: 5.1
бітрейт: 384 кб/с



Шукайте нашу сторінку на FaceBook: DubLcat


Посилання на ТРЕЙЛЕР

Аудіо # 2:
мова: англійська
переклад: оригінал
кодек: 5.1
бітрейт: 640 кб/с

Субтитри:
мова: українська
тип: програмні (м'які)
формат: *.srt
переклад: [SubAutumn]

Субтитри:
мова: англійська
тип: програмні (м'які)
формат: *.srt
Info
General
Unique ID : 9790277047321641216957714021991354490 (0x75D89ED05CB5CBF555437E49134907A)
Complete name : F:\Russian Doll (Season 1)\Russian.Doll.s01e01.1080p..Eng.Ukr.Sub.Eng.Ukr.
Format :
Format version : Version 4 / Version 2
File size : 957 MiB
Duration : 24mn 59s
Overall bit rate mode : Variable
Overall bit rate : 5 352 Kbps
Encoded date : UTC 2019-07-20 11:15:04
Writing application : v23.0.0 ('The Bride Said No') 64-bit
Writing library : libebml v1.3.6 + v1.4.9
DURATION : 00:24:34.112000000
NUMBER_OF_FRAMES : 46066
NUMBER_OF_BYTES : 117928960
_STATISTICS_WRITING_APP : v23.0.0 ('The Bride Said No') 64-bit
_STATISTICS_WRITING_DATE_UTC : 2019-07-20 11:15:04
_STATISTICS_TAGS : BPS DURATION NUMBER_OF_FRAMES NUMBER_OF_BYTES

Video
ID : 1
Format : AVC
Format/Info : Advanced Video Codec
Format profile : [email protected]
Format settings, CABAC : Yes
Format settings, ReFrames : 3 frames
Codec ID : V_MPEG4/ISO/AVC
Duration : 24mn 59s
Bit rate mode : Variable
Bit rate : 4 420 Kbps
Maximum bit rate : 6 630 Kbps
Width : 1 920 pixels
Height : 1 080 pixels
Display aspect ratio : 16:9
Frame rate : 23.976 fps
Color space : YUV
Chroma subsampling : 4:2:0
Bit depth : 8 bits
Scan type : Progressive
Bits/(Pixel*Frame) : 0.089
Stream size : 755 MiB (79%)
Writing library : core 148 r2715 7e75228
Encoding settings : cabac=1 / ref=3 / deblock=1:0:0 / analyse=0x1:0x111 / me=umh / subme=10 / psy=1 / psy_rd=1.00:0.00 / mixed_ref=1 / me_range=24 / chroma_me=1 / trellis=2 / 8x8dct=0 / cqm=0 / deadzone=21,11 / fast_pskip=1 / chroma_qp_offset=-2 / threads=8 / lookahead_threads=1 / sliced_threads=0 / nr=0 / decimate=1 / interlaced=0 / bluray_compat=0 / stitchable=1 / constrained_intra=0 / bframes=2 / b_pyramid=0 / b_adapt=2 / b_bias=0 / direct=3 / weightb=1 / open_gop=0 / weightp=2 / keyint=48 / keyint_min=25 / scenecut=0 / intra_refresh=0 / rc_lookahead=48 / rc=2pass / mbtree=1 / bitrate=4420 / ratetol=1.0 / qcomp=0.50 / qpmin=6 / qpmax=51 / qpstep=4 / cplxblur=20.0 / qblur=0.5 / vbv_maxrate=6630 / vbv_bufsize=8840 / nal_hrd=vbr / filler=0 / ip_ratio=1.40 / aq=1:1.00
Language : English
Default : Yes
Forced : No

Audio #1
ID : 2
Format : AC-3
Format/Info : Audio Coding 3
Mode extension : CM (complete main)
Codec ID : A_AC3
Duration : 24mn 59s
Bit rate mode : Constant
Bit rate : 384 Kbps
Channel(s) : 6 channels
Channel positions : Front: L C R, Side: L R, LFE
Sampling rate : 48.0 KHz
Bit depth : 16 bits
Compression mode : Lossy
Stream size : 68.7 MiB (7%)
Language : Ukrainian
Default : Yes
Forced : No

Audio #2
ID : 3
Format : AC-3
Format/Info : Audio Coding 3
Mode extension : CM (complete main)
Codec ID : A_AC3
Duration : 24mn 59s
Bit rate mode : Constant
Bit rate : 640 Kbps
Channel(s) : 6 channels
Channel positions : Front: L C R, Side: L R, LFE
Sampling rate : 48.0 KHz
Bit depth : 16 bits
Compression mode : Lossy
Stream size : 114 MiB (12%)
Language : English
Default : No
Forced : No

Text #1
ID : 4
Format : UTF-8
Codec ID : S_TEXT/UTF8
Codec ID/Info : UTF-8 Plain Text
Language : Ukrainian
Default : Yes
Forced : No

Text #2
ID : 5
Format : UTF-8
Codec ID : S_TEXT/UTF8
Codec ID/Info : UTF-8 Plain Text
Title : Full
Language : English
Default : No
Forced : No
Скріншоти




Джерело:
Особиста оцінка: 10 - без зайвих вагань рекомендую всім!


Авторський реліз (завантажувати можна без реєстрації)
 Трекер:    Зареєстрований   

Завантажити / скачати серіал українською



відео для новачків



 Зареєстрований:   2019-08-16 19:00
 Розмір:   4.42 GB 
 Оцінка серіалу:   7.8/10 (Голосів: 12)
   
dragheart 
Свій


З нами з: 27.01.16
Востаннє: 22.08.19
Повідомлень: 66

2019-07-25 17:55  
Додано 2-у серію
dragheart 
Свій


З нами з: 27.01.16
Востаннє: 22.08.19
Повідомлень: 66

2019-07-31 19:30  
Додано 3-ю серію
Estranded 
VIP


З нами з: 09.02.14
Востаннє: 22.08.19
Повідомлень: 1395

2019-08-09 19:06  
Буде весь сезон?
gashyk 
Свій


З нами з: 19.03.10
Востаннє: 23.08.19
Повідомлень: 111

2019-08-09 19:18  
Несподівано хороший серіал. Без мильних розводів. З чітким сценарієм.
antik_2008 
Релізер і модератор відео


З нами з: 20.10.08
Востаннє: 23.08.19
Повідомлень: 2255

2019-08-14 19:09  
dragheart
Коли продовження чекати? То відразу весь сезон хочу в avi зробити .

armogun 
Попереджень: 1
Попереджень: 1 


З нами з: 04.05.13
Востаннє: 20.08.19
Повідомлень: 527

2019-08-15 15:30  
рідкісний гумус, не витрачайте на це свій час. Тетяні Микитенко в топ рагульських серіалів
dragheart 
Свій


З нами з: 27.01.16
Востаннє: 22.08.19
Повідомлень: 66

2019-08-16 19:02  
Додано 5-у серію
Ваш часовий пояс: GMT + 2 Години

Нова тема   Відповісти