У пошуках пригод / The Quest (1996) [Open Matte] 1080p 3xUkr/Eng | Sub Eng

Нові коментарі

Нова тема   Відповісти
Автор Повідомлення
Anonymous 







2019-07-20 13:29  
У пошуках пригод / The Quest (1996) [Open Matte] 1080p 3xUkr/Eng | Sub Eng

У пошуках пригод / The Quest (1996) [Open Matte] 1080p 3xUkr/Eng | Sub Eng


Жанр: екшн, пригодницький, трилер
Країна: США
Кінокомпанія: MDP Worldwide, Selima Films AVV, Signature Pictures
Режисер: Жан-Клод Ван Дамм
Актори: Жан-Клод Ван Дамм, Роджер Мур, Джеймс Ремар, Дженет Ганн, Джек МакГі, Луїс Менділор, Акі Алеонг

Сюжет:
Був час, коли в світі ще вистачало місця для піратської різанини, пасток контрабандистів, работоргівців і стародавніх таємниць загадкового Сходу. Коли справжні чоловіки могли відправитися на пошуки неймовірних пригод...

Тривалість: 01:34:32
Якість:
Відео:
кодек:
розмір кадру: 1920 x 1080
бітрейт: 10 657 кб/с

Аудіо # 1:
мова: українська
переклад: багатоголосий закадровий
кодек: AC-3 2.0
бітрейт: 192 кб/с

Аудіо # 2:
мова: українська
переклад: багатоголосий закадровий
кодек: AC-3 2.0
бітрейт: 192 кб/с

Аудіо # 3:
мова: українська
переклад: двоголосий закадровий
кодек: AC-3 5.1
бітрейт: 384 кб/с

Аудіо # 4:
мова: англійська
переклад: оригінал
кодек: 5.1
бітрейт: 1511 кб/с

Субтитри # 1:
мова: англійська (Full),
тип: програмні (м'які)
формат: *.srt

Субтитри # 2:
мова: англійська (SDH),
тип: програмні (м'які)
формат: *.srt


Info
Код:
General
Unique ID                                : 310647152869481927650953392657911708748 (0xE9B4772378A016F6311695316492FC4C)
Complete name                            : The Quest (1996) [Open Matte] 1080p [3xUKR_ENG] [Hurtom].
Format                                   :
Format version                           : Version 4 / Version 2
File size                                : 8.55 GiB
Duration                                 : 1 h 34 min
Overall bit rate mode                    : Variable
Overall bit rate                         : 12.9 Mb/s
Movie name                               : У пошуках пригод / The Quest (1996)
Encoded date                             : UTC 2019-07-20 10:12:17
Writing application                      : v20.0.0 ('I Am The Sun') 64-bit
Writing library                          : libebml v1.3.5 + v1.4.8
Cover                                    : Yes
Attachments                              : Cover.jpg

Video
ID                                       : 1
Format                                   : AVC
Format/Info                              : Advanced Video Codec
Format profile                           : [email protected]
Format settings                          : CABAC / 4 Ref Frames
Format settings, CABAC                   : Yes
Format settings, ReFrames                : 4 frames
Codec ID                                 : V_MPEG4/ISO/AVC
Duration                                 : 1 h 34 min
Bit rate mode                            : Variable
Bit rate                                 : 10.7 Mb/s
Maximum bit rate                         : 15.0 Mb/s
Width                                    : 1 920 pixels
Height                                   : 1 080 pixels
Display aspect ratio                     : 16:9
Frame rate mode                          : Constant
Frame rate                               : 23.976 (24000/1001) FPS
Color space                              : YUV
Chroma subsampling                       : 4:2:0
Bit depth                                : 8 bits
Scan type                                : Progressive
Bits/(Pixel*Frame)                       : 0.214
Stream size                              : 7.04 GiB (82%)
Title                                    : У пошуках пригод / The Quest (1996)
Default                                  : Yes
Forced                                   : No
Color range                              : Limited
Color primaries                          : BT.709
Transfer characteristics                 : BT.709
Matrix coefficients                      : BT.709

Audio #1
ID                                       : 2
Format                                   : AC-3
Format/Info                              : Audio Coding 3
Codec ID                                 : A_AC3
Duration                                 : 1 h 34 min
Bit rate mode                            : Constant
Bit rate                                 : 192 kb/s
Channel(s)                               : 2 channels
Channel positions                        : Front: L R
Sampling rate                            : 48.0 kHz
Frame rate                               : 31.250 FPS (1536 SPF)
Bit depth                                : 16 bits
Compression mode                         : Lossy
Stream size                              : 130 MiB (1%)
Title                                    : БЗ - Cine+
Language                                 : Ukrainian
Service kind                             : Complete Main
Default                                  : Yes
Forced                                   : Yes

Audio #2
ID                                       : 3
Format                                   : AC-3
Format/Info                              : Audio Coding 3
Codec ID                                 : A_AC3
Duration                                 : 1 h 34 min
Bit rate mode                            : Constant
Bit rate                                 : 192 kb/s
Channel(s)                               : 2 channels
Channel positions                        : Front: L R
Sampling rate                            : 48.0 kHz
Frame rate                               : 31.250 FPS (1536 SPF)
Bit depth                                : 16 bits
Compression mode                         : Lossy
Stream size                              : 130 MiB (1%)
Title                                    : БЗ - ICTV
Language                                 : Ukrainian
Service kind                             : Complete Main
Default                                  : No
Forced                                   : No

Audio #3
ID                                       : 4
Format                                   : AC-3
Format/Info                              : Audio Coding 3
Codec ID                                 : A_AC3
Duration                                 : 1 h 34 min
Bit rate mode                            : Constant
Bit rate                                 : 384 kb/s
Channel(s)                               : 6 channels
Channel positions                        : Front: L C R, Side: L R, LFE
Sampling rate                            : 48.0 kHz
Frame rate                               : 31.250 FPS (1536 SPF)
Bit depth                                : 16 bits
Compression mode                         : Lossy
Stream size                              : 260 MiB (3%)
Title                                    : ДЗ - 2+2
Language                                 : Ukrainian
Service kind                             : Complete Main
Default                                  : No
Forced                                   : No

Audio #4
ID                                       : 5
Format                                   :
Format/Info                              : Digital Theater Systems
Codec ID                                 : A_DTS
Duration                                 : 1 h 34 min
Bit rate mode                            : Constant
Bit rate                                 : 1 510 kb/s
Channel(s)                               : 6 channels
Channel positions                        : Front: L C R, Side: L R, LFE
Sampling rate                            : 48.0 kHz
Frame rate                               : 93.750 FPS (512 SPF)
Bit depth                                : 24 bits
Compression mode                         : Lossy
Stream size                              : 1 022 MiB (12%)
Title                                    : Original
Language                                 : English
Default                                  : No
Forced                                   : No

Text #1
ID                                       : 6
Format                                   : UTF-8
Codec ID                                 : S_TEXT/UTF8
Codec ID/Info                            : UTF-8 Plain Text
Duration                                 : 1 h 29 min
Bit rate                                 : 27 b/s
Count of elements                        : 606
Stream size                              : 18.3 KiB (0%)
Title                                    : Full
Language                                 : English
Default                                  : No
Forced                                   : No

Text #2
ID                                       : 7
Format                                   : UTF-8
Codec ID                                 : S_TEXT/UTF8
Codec ID/Info                            : UTF-8 Plain Text
Duration                                 : 1 h 30 min
Bit rate                                 : 32 b/s
Count of elements                        : 743
Stream size                              : 21.5 KiB (0%)
Title                                    : SDH
Language                                 : English
Default                                  : No
Forced                                   : No

Menu
00:00:00.000                             : en:00:00:00.000
00:03:02.307                             : en:00:03:02.307
00:07:03.923                             : en:00:07:03.923
00:14:49.889                             : en:00:14:49.889
00:20:49.665                             : en:00:20:49.665
00:27:52.504                             : en:00:27:52.504
00:35:59.282                             : en:00:35:59.282
00:40:10.074                             : en:00:40:10.074
00:46:52.184                             : en:00:46:52.184
00:52:59.384                             : en:00:52:59.384
00:59:32.568                             : en:00:59:32.568
01:09:12.857                             : en:01:09:12.857
01:14:04.273                             : en:01:14:04.273
01:21:10.740                             : en:01:21:10.740
01:25:49.644                             : en:01:25:49.644
01:29:48.299                             : en:01:29:48.299
Світлини




Джерело: &
Особиста оцінка: 0 - не дивився


Срібний реліз (на рейтинг впливає 50% завантаженого)
 Трекер:    Зареєстрований   

Завантажити / скачати фільм українською



відео для новачків



 Зареєстрований:   2019-07-20 13:29
 Розмір:   8.55 GB 
 Оцінка фільму:   10/10 (Голосів: 4)
   
Інші релізи
geroyasfalta 
Свій


З нами з: 20.06.11
Востаннє: 23.09.20
Повідомлень: 94

2019-09-10 07:57  
Поверніться будь-ласка на роздачу!
geroyasfalta 
Свій


З нами з: 20.06.11
Востаннє: 23.09.20
Повідомлень: 94

2019-12-03 14:43  
Можливо у когось є 3 українських доріжки окремо?Якщо не важко дайте посилання.Дякую!
geroyasfalta 
Свій


З нами з: 20.06.11
Востаннє: 23.09.20
Повідомлень: 94

2019-12-21 18:00  
Велике спасибі serjmerj за те,що повернувся на роздачу!
Ваш часовий пояс: GMT + 2 Години

Нова тема   Відповісти