Шість куль / 6 bullets (2012) 1080p 2xUkr/Eng | Sub Eng

Нові коментарі

Нова тема   Відповісти
Останній раз роздавалося LevM (2019-11-19)
Автор Повідомлення
Anonymous 







2019-07-20 11:49  
Шість куль / 6 bullets (2012) 1080p 2xUkr/Eng | Sub Eng

Шість куль / 6 bullets (2012) 1080p 2xUkr/Eng | Sub Eng


Жанр: бойовик, трилер, кримінальний
Країна: США
Кінокомпанія: Motion Picture Corporation of America (MPCA), Rodin Entertainment See more
Режисер: Ерні Барбараш
Актори: Жан-Клод Ван Дамм, Джо Фленіган, Анна-Луїза Плауман, Шарлотта Бомонт, Стів Ніколсон, Уріель Еміль Поллак, Луїс Демпсі, Марк Льюїс, Крістофер Ван Варенберг, Бьянка Брі

Сюжет:
Головний герой кінокартини - колишній найманець Самсон Ґол, який повністю відійшов від справ і займається розшуком зниклих дітей. Йому належить відшукати дочку колишнього бійця змішаних єдиноборств. Самсону доведеться задіяти всі свої навички, щоб врятувати дочку Ендрю і Моніки Фейден.

Тривалість: 01:54:52
Якість:
Відео:
кодек:
розмір кадру: 1920 x 1080
бітрейт: 10 757 кб/с

Аудіо # 1:
мова: українська
переклад: багатоголосий закадровий
кодек: AC-3 2.0
бітрейт: 192 кб/с

Аудіо # 2:
мова: українська
переклад: двоголосий закадровий
кодек: AC-3 2.0
бітрейт: 192 кб/с

Аудіо # 3:
мова: англійська
переклад: оригінал
кодек: 5.1
бітрейт: 1510 кб/с

Субтитри # 1:
мова: англійська (Full),
тип: програмні (м'які)
формат: *.srt


Info
Код:
General
Unique ID                                : 23116764019381033718717826085735959393 (0x116420763DE364C23CD521A394E50B61)
Complete name                            : 6 bullets (2012) 1080p [2xUKR_ENG] [Hurtom].
Format                                   :
Format version                           : Version 4 / Version 2
File size                                : 10.1 GiB
Duration                                 : 1 h 54 min
Overall bit rate                         : 12.6 Mb/s
Movie name                               : Шість куль / 6 bullets (2012)
Encoded date                             : UTC 2019-07-20 06:51:59
Writing application                      : v20.0.0 ('I Am The Sun') 64-bit
Writing library                          : libebml v1.3.5 + v1.4.8
Cover                                    : Yes
Attachments                              : Cover.jpg

Video
ID                                       : 1
Format                                   : AVC
Format/Info                              : Advanced Video Codec
Format profile                           : [email protected]
Format settings                          : CABAC / 4 Ref Frames
Format settings, CABAC                   : Yes
Format settings, ReFrames                : 4 frames
Codec ID                                 : V_MPEG4/ISO/AVC
Duration                                 : 1 h 54 min
Bit rate                                 : 10.8 Mb/s
Width                                    : 1 920 pixels
Height                                   : 1 080 pixels
Display aspect ratio                     : 16:9
Frame rate mode                          : Constant
Frame rate                               : 23.976 (24000/1001) FPS
Color space                              : YUV
Chroma subsampling                       : 4:2:0
Bit depth                                : 8 bits
Scan type                                : Progressive
Bits/(Pixel*Frame)                       : 0.216
Stream size                              : 8.60 GiB (85%)
Title                                    : Шість куль / 6 bullets (2012)
Writing library                          : core 125 r2208 d9d2288
Encoding settings                        : cabac=1 / ref=4 / deblock=1:-3:-3 / analyse=0x3:0x133 / me=umh / subme=10 / psy=1 / psy_rd=1.00:0.00 / mixed_ref=1 / me_range=48 / chroma_me=1 / trellis=2 / 8x8dct=1 / cqm=0 / deadzone=21,11 / fast_pskip=1 / chroma_qp_offset=-2 / threads=12 / lookahead_threads=2 / sliced_threads=0 / nr=0 / decimate=0 / interlaced=0 / bluray_compat=0 / constrained_intra=0 / bframes=7 / b_pyramid=2 / b_adapt=2 / b_bias=0 / direct=3 / weightb=1 / open_gop=0 / weightp=2 / keyint=250 / keyint_min=23 / scenecut=40 / intra_refresh=0 / rc_lookahead=80 / rc=2pass / mbtree=1 / bitrate=10756 / ratetol=1.0 / qcomp=0.60 / qpmin=0 / qpmax=69 / qpstep=4 / cplxblur=20.0 / qblur=0.5 / vbv_maxrate=30000 / vbv_bufsize=30000 / nal_hrd=none / ip_ratio=1.50 / aq=1:1.00
Language                                 : English
Default                                  : Yes
Forced                                   : No

Audio #1
ID                                       : 2
Format                                   : AC-3
Format/Info                              : Audio Coding 3
Codec ID                                 : A_AC3
Duration                                 : 1 h 54 min
Bit rate mode                            : Constant
Bit rate                                 : 192 kb/s
Channel(s)                               : 2 channels
Channel positions                        : Front: L R
Sampling rate                            : 48.0 kHz
Frame rate                               : 31.250 FPS (1536 SPF)
Bit depth                                : 16 bits
Compression mode                         : Lossy
Stream size                              : 158 MiB (2%)
Title                                    : БЗ - ICTV
Language                                 : Ukrainian
Service kind                             : Complete Main
Default                                  : Yes
Forced                                   : Yes

Audio #2
ID                                       : 3
Format                                   : AC-3
Format/Info                              : Audio Coding 3
Codec ID                                 : A_AC3
Duration                                 : 1 h 54 min
Bit rate mode                            : Constant
Bit rate                                 : 192 kb/s
Channel(s)                               : 2 channels
Channel positions                        : Front: L R
Sampling rate                            : 48.0 kHz
Frame rate                               : 31.250 FPS (1536 SPF)
Bit depth                                : 16 bits
Compression mode                         : Lossy
Stream size                              : 158 MiB (2%)
Title                                    : ДЗ - 2+2
Language                                 : Ukrainian
Service kind                             : Complete Main
Default                                  : No
Forced                                   : No

Audio #3
ID                                       : 4
Format                                   :
Format/Info                              : Digital Theater Systems
Codec ID                                 : A_DTS
Duration                                 : 1 h 54 min
Bit rate mode                            : Constant
Bit rate                                 : 1 509 kb/s
Channel(s)                               : 6 channels
Channel positions                        : Front: L C R, Side: L R, LFE
Sampling rate                            : 48.0 kHz
Frame rate                               : 93.750 FPS (512 SPF)
Bit depth                                : 24 bits
Compression mode                         : Lossy
Stream size                              : 1.21 GiB (12%)
Title                                    : Original
Language                                 : English
Default                                  : No
Forced                                   : No

Text
ID                                       : 5
Format                                   : UTF-8
Codec ID                                 : S_TEXT/UTF8
Codec ID/Info                            : UTF-8 Plain Text
Duration                                 : 1 h 46 min
Bit rate                                 : 35 b/s
Count of elements                        : 901
Stream size                              : 27.5 KiB (0%)
Title                                    : Full
Language                                 : English
Default                                  : No
Forced                                   : No

Menu
00:00:00.000                             : en:Chapter 1
00:10:50.566                             : en:Chapter 2
00:18:49.753                             : en:Chapter 3
00:28:00.553                             : en:Chapter 4
00:35:29.502                             : en:Chapter 5
00:44:44.264                             : en:Chapter 6
00:57:33.074                             : en:Chapter 7
01:07:34.508                             : en:Chapter 8
01:16:18.698                             : en:Chapter 9
01:27:09.265                             : en:Chapter 10
01:35:15.542                             : en:Chapter 11
01:47:03.542                             : en:Chapter 12
01:54:47.380                             : en:Chapter 13
Світлини




Джерело: &
Особиста оцінка: 0 - не дивився


 Трекер:    Зареєстрований   

Завантажити / скачати фільм українською



відео для новачків



 Зареєстрований:   2019-07-20 11:49
 Розмір:   10.12 GB 
 Оцінка фільму:   -/10 (Голосів: 0)
   
Інші релізи
   Шість куль / 6 bullets (2012) AVC 2xUkr/Eng | Sub Eng -Star-Lord-  2 / 0   2.66 GB   2019-07-20 11:53 
   Шість куль / 6 bullets (2012) 1080p H.265 2xUkr/Eng | Sub Eng -Star-Lord-  0 / 0   7 GB   2019-07-20 11:51 
   Шість куль / 6 bullets (2012) 720p 2xUkr/Eng | Sub Eng -Star-Lord-  0 / 0   4.29 GB   2019-07-20 11:47 
   Шість куль / 6 bullets (2012) 2xUkr/Eng ninenine  2 / 0   2.14 GB   2016-06-02 15:24 
Ваш часовий пояс: GMT + 2 Години

Нова тема   Відповісти