Чорний орел / Black Eagle (1988) [Theatrical Cut] 1080p 2xUkr/Eng

Нові коментарі

Нова тема   Відповісти
Останній раз роздавалося coltojkee (2019-07-30)
Автор Повідомлення
Anonymous 







2019-07-20 03:32  
Чорний орел / Black Eagle (1988) [Theatrical Cut] 1080p 2xUkr/Eng

Чорний орел / Black Eagle (1988) [Theatrical Cut] 1080p 2xUkr/Eng


Жанр: бойовик, драма
Країна: США
Кінокомпанія: Rotecon B.V., Magus
Режисер: Ерік Карсон
Актори: Сьо Косугі, Жан-Клод Ван Дамм, Доран Кларк, Брюс Френч, Володимир Скомаровський та інші

Сюжет:
Під ім'ям "Чорного орла" спеціальний агент ЦРУ приїжджає на Мальту, щоб перешкодити КДБ викрасти надсекретний новий лазерний пристрій.
Цього дня спокійне життя для мешканців острова скінчилося: вибухи, погоні, вбивства, викрадення дітей...

Тривалість: 01:32:51
Якість:
Відео:
кодек:
розмір кадру: 1920 x 1080
бітрейт: 5 831 кб/с

Аудіо # 1:
мова: українська
переклад: багатоголосий закадровий
кодек: AC-3 2.0
бітрейт: 192 кб/с

Аудіо # 2:
мова: українська
переклад: двоголосий закадровий
кодек: AC-3 2.0
бітрейт: 192 кб/с

Аудіо # 3:
мова: англійська
переклад: оригінал
кодек: AC-3 2.0
бітрейт: 192 кб/с


Info
Код:
General
Unique ID                                : 78452179177207707586234081860384841020 (0x3B05571151128DE3692EAE7D8E61DD3C)
Complete name                            : Black Eagle (1988) [TC] 1080p [2xUKR_ENG] [Hurtom].
Format                                   :
Format version                           : Version 4 / Version 2
File size                                : 4.16 GiB
Duration                                 : 1 h 33 min
Overall bit rate                         : 6 383 kb/s
Movie name                               : Чорний орел / Black Eagle (1988)
Encoded date                             : UTC 2019-07-20 00:25:38
Writing application                      : v20.0.0 ('I Am The Sun') 64-bit
Writing library                          : libebml v1.3.5 + v1.4.8
Cover                                    : Yes
Attachments                              : Cover.jpg

Video
ID                                       : 1
Format                                   : AVC
Format/Info                              : Advanced Video Codec
Format profile                           : [email protected]
Format settings                          : CABAC / 5 Ref Frames
Format settings, CABAC                   : Yes
Format settings, ReFrames                : 5 frames
Codec ID                                 : V_MPEG4/ISO/AVC
Duration                                 : 1 h 32 min
Bit rate                                 : 5 831 kb/s
Width                                    : 1 920 pixels
Height                                   : 1 080 pixels
Display aspect ratio                     : 16:9
Frame rate mode                          : Constant
Frame rate                               : 23.976 (24000/1001) FPS
Color space                              : YUV
Chroma subsampling                       : 4:2:0
Bit depth                                : 8 bits
Scan type                                : Progressive
Bits/(Pixel*Frame)                       : 0.117
Stream size                              : 3.78 GiB (91%)
Title                                    : Чорний орел / Black Eagle (1988)
Writing library                          : core 130 r2273 b3065e6
Encoding settings                        : cabac=1 / ref=5 / deblock=1:0:0 / analyse=0x3:0x133 / me=umh / subme=7 / psy=1 / psy_rd=1.00:0.00 / mixed_ref=1 / me_range=16 / chroma_me=1 / trellis=0 / 8x8dct=1 / cqm=0 / deadzone=21,11 / fast_pskip=0 / chroma_qp_offset=-2 / threads=12 / lookahead_threads=3 / sliced_threads=0 / nr=0 / decimate=1 / interlaced=0 / bluray_compat=0 / constrained_intra=0 / bframes=6 / b_pyramid=2 / b_adapt=2 / b_bias=0 / direct=3 / weightb=1 / open_gop=0 / weightp=2 / keyint=240 / keyint_min=24 / scenecut=40 / intra_refresh=0 / rc_lookahead=50 / rc=2pass / mbtree=1 / bitrate=5831 / ratetol=1.0 / qcomp=0.60 / qpmin=0 / qpmax=69 / qpstep=4 / cplxblur=20.0 / qblur=0.5 / ip_ratio=1.40 / aq=1:1.00
Language                                 : English
Default                                  : Yes
Forced                                   : No
Color range                              : Limited
Color primaries                          : BT.709
Transfer characteristics                 : BT.709
Matrix coefficients                      : BT.709

Audio #1
ID                                       : 2
Format                                   : AC-3
Format/Info                              : Audio Coding 3
Codec ID                                 : A_AC3
Duration                                 : 1 h 33 min
Bit rate mode                            : Constant
Bit rate                                 : 192 kb/s
Channel(s)                               : 2 channels
Channel positions                        : Front: L R
Sampling rate                            : 48.0 kHz
Frame rate                               : 31.250 FPS (1536 SPF)
Bit depth                                : 16 bits
Compression mode                         : Lossy
Stream size                              : 128 MiB (3%)
Title                                    : БЗ - NTN
Language                                 : Ukrainian
Service kind                             : Complete Main
Default                                  : Yes
Forced                                   : Yes

Audio #2
ID                                       : 3
Format                                   : AC-3
Format/Info                              : Audio Coding 3
Codec ID                                 : A_AC3
Duration                                 : 1 h 32 min
Bit rate mode                            : Constant
Bit rate                                 : 192 kb/s
Channel(s)                               : 2 channels
Channel positions                        : Front: L R
Sampling rate                            : 48.0 kHz
Frame rate                               : 31.250 FPS (1536 SPF)
Bit depth                                : 16 bits
Compression mode                         : Lossy
Stream size                              : 127 MiB (3%)
Title                                    : ДЗ - Kino
Language                                 : Ukrainian
Service kind                             : Complete Main
Default                                  : No
Forced                                   : No

Audio #3
ID                                       : 4
Format                                   : AC-3
Format/Info                              : Audio Coding 3
Codec ID                                 : A_AC3
Duration                                 : 1 h 33 min
Bit rate mode                            : Constant
Bit rate                                 : 192 kb/s
Channel(s)                               : 2 channels
Channel positions                        : Front: L R
Sampling rate                            : 48.0 kHz
Frame rate                               : 31.250 FPS (1536 SPF)
Bit depth                                : 16 bits
Compression mode                         : Lossy
Stream size                              : 128 MiB (3%)
Title                                    : Original
Language                                 : English
Service kind                             : Complete Main
Default                                  : No
Forced                                   : No

Menu
00:00:00.000                             : en:Chapter 1
00:00:00.375                             : en:Chapter 2
00:14:17.064                             : en:Chapter 3
00:24:49.196                             : en:Chapter 4
00:34:57.178                             : en:Chapter 5
00:44:34.755                             : en:Chapter 6
00:57:37.412                             : en:Chapter 7
01:09:00.177                             : en:Chapter 8
01:20:13.892                             : en:Chapter 9
Світлини




Джерело: &
Особиста оцінка: 0 - не дивився


Срібний реліз (на рейтинг впливає 50% завантаженого)
 Трекер:    Зареєстрований   

Завантажити / скачати фільм українською



відео для новачків



 Зареєстрований:   2019-07-20 03:32
 Розмір:   4.16 GB 
 Оцінка фільму:   10/10 (Голосів: 1)
   
Інші релізи
   Чорний орел / Black Eagle (1988) [Theatrical Cut] 1080p H.265 2xUkr/Eng -Star-Lord-  0 / 1   4.4 GB   2019-07-20 03:34 
   Чорний орел / Black Eagle [Extended Cut] (1988) 2xUkr omm  3 / 0   1.6 GB   2014-06-26 20:32 
   Чорний орел / Black Eagle (1988) Givi  0 / 0   1.28 GB   2010-12-31 00:38 
Ваш часовий пояс: GMT + 2 Години

Нова тема   Відповісти