День незалежності 2: Відродження / Independence Day: Resurgence (2016) 1080p H.265 Ukr/Eng | Sub Ukr/Eng

Нові коментарі

Нова тема   Відповісти
Автор Повідомлення
Anonymous 







2019-07-19 11:15  
День незалежності 2: Відродження / Independence Day: Resurgence (2016) 1080p H.265 Ukr/Eng | Sub Ukr/Eng

День незалежності 2: Відродження / Independence Day: Resurgence (2016) 1080p H.265 Ukr/Eng | Sub Ukr/Eng


Жанр: пригоди, фантастика, дія
Країна: США
Кінокомпанія: Centropolis Entertainment, Stereo D, Twentieth Century Fox
Режисер: Роланд Еммеріх
Актори: Ліам Гемсворт, Джефф Ґолдблюм, Білл Пуллман, Майка Монро, Джої Кінґ, Вільям Фіхтнер, Шарлотта Ґенсбурґ, Вівіка А. Фокс, Села Вард, Брент Спайнер

Сюжет:
Сиквел однієї з найпопулярніших стрічок-катастроф 90-их про вторгнення інопланетян на планету Земля "День незалежності" Роланда Еммеріха. Режисер "Ґодзілли", "2012" і "Післязавтра" через двадцять років повернувся до знаменитої історії. Після подій минули два десятиріччя. Людство, адаптувавши технології прибульців, створило глобальну оборонну систему. Деякі військові сили були розміщені на Марсі, Місяці та Реї. До своєї остаточної поразки 20 років тому інопланетяни встигли послати у космос сигнал лиха. Тепер в сторону Землі прямує більш потужний і численний флот. Чи зможе на цей раз винахідливість кількох осіб врятувати цивілізацію?

Тривалість: 01:59:44
Якість:
Відео:
кодек: H.265 (HEVC)
розмір кадру: 1920 x 800
бітрейт: 6 875 кб/с
бітова глибина: 10 біт
Увага! Перед завантаженням переконайтесь, що ваш пристрій відтворення (та/або ПЗ) підтримує H.265 (HEVC)

Аудіо # 1:
мова: українська
переклад: професійний дубльований
кодек: AC-3 5.1
бітрейт: 448 кб/с

Аудіо # 2:
мова: англійська
переклад: оригінал
кодек: AC-3 5.1
бітрейт: 640 кб/с

Субтитри # 1:
мова: українська (Forced),
тип: програмні (м'які)
формат: *.srt

Субтитри # 2:
мова: українська (Full),
тип: програмні (м'які)
формат: *.srt

Субтитри # 3:
мова: англійська (Forced),
тип: програмні (м'які)
формат: *.srt

Субтитри # 4:
мова: англійська (Full),
тип: програмні (м'які)
формат: *.srt


Info
Код:
General
Unique ID                                : 201113992170262200603468700281685611898 (0x974D255EA81E4C7C2B4D26844F8B157A)
Complete name                            : Independence Day. Resurgence (2016) 1080p H.265 [UKR_ENG] [Hurtom].
Format                                   :
Format version                           : Version 4 / Version 2
File size                                : 6.66 GiB
Duration                                 : 1 h 59 min
Overall bit rate                         : 7 966 kb/s
Movie name                               : День незалежності 2: Відродження / Independence Day: Resurgence (2016)
Encoded date                             : UTC 2019-07-19 07:56:25
Writing application                      : v20.0.0 ('I Am The Sun') 64-bit
Writing library                          : libebml v1.3.5 + v1.4.8
Cover                                    : Yes
Attachments                              : cover

Video
ID                                       : 1
Format                                   : HEVC
Format/Info                              : High Efficiency Video Coding
Format profile                           : Main [email protected]@High
Codec ID                                 : V_MPEGH/ISO/HEVC
Duration                                 : 1 h 59 min
Bit rate                                 : 6 875 kb/s
Width                                    : 1 920 pixels
Height                                   : 800 pixels
Display aspect ratio                     : 2.40:1
Frame rate mode                          : Constant
Frame rate                               : 23.976 (23976/1000) FPS
Original frame rate                      : 23.976 (24000/1001) FPS
Color space                              : YUV
Chroma subsampling                       : 4:2:0
Bit depth                                : 10 bits
Bits/(Pixel*Frame)                       : 0.187
Stream size                              : 5.75 GiB (86%)
Title                                    : День незалежності 2: Відродження / Independence Day: Resurgence (2016)
Writing library                          : x265 3.0_Au+4-dcbec33bfb0f:[Windows][MSVC 1916][64 bit] 10bit
Encoding settings                        : cpuid=1111039 / frame-threads=3 / numa-pools=12 / wpp / no-pmode / no-pme / no-psnr / no-ssim / log-level=2 / input-csp=1 / input-res=1920x800 / interlace=0 / total-frames=86347 / level-idc=41 / high-tier=1 / uhd-bd=0 / ref=5 / no-allow-non-conformance / no-repeat-headers / annexb / no-aud / no-hrd / info / hash=0 / no-temporal-layers / open-gop / min-keyint=23 / keyint=240 / gop-lookahead=0 / bframes=13 / b-adapt=2 / b-pyramid / bframe-bias=0 / rc-lookahead=60 / lookahead-slices=4 / scenecut=40 / radl=0 / no-splice / no-intra-refresh / ctu=32 / min-cu-size=8 / rect / amp / max-tu-size=32 / tu-inter-depth=4 / tu-intra-depth=4 / limit-tu=1 / rdoq-level=2 / dynamic-rd=0.00 / no-ssim-rd / signhide / no-tskip / nr-intra=0 / nr-inter=0 / no-constrained-intra / no-strong-intra-smoothing / max-merge=4 / limit-refs=2 / limit-modes / me=3 / subme=7 / merange=57 / temporal-mvp / weightp / weightb / no-analyze-src-pics / deblock=-3:-3 / no-sao / no-sao-non-deblock / rd=6 / no-early-skip / no-rskip / no-fast-intra / no-tskip-fast / no-cu-lossless / no-b-intra / no-splitrd-skip / rdpenalty=0 / psy-rd=2.00 / psy-rdoq=1.00 / no-rd-refine / no-lossless / cbqpoffs=0 / crqpoffs=0 / rc=crf / crf=21.0 / qcomp=0.60 / qpstep=4 / stats-write=0 / stats-read=0 / vbv-maxrate=50000 / vbv-bufsize=50000 / vbv-init=1.0 / crf-max=0.0 / crf-min=0.0 / ipratio=1.40 / pbratio=1.30 / aq-mode=1 / aq-strength=1.00 / no-cutree / zone-count=0 / no-strict-cbr / qg-size=32 / no-rc-grain / qpmax=69 / qpmin=0 / no-const-vbv / sar=1 / overscan=0 / videoformat=5 / range=0 / colorprim=2 / transfer=2 / colormatrix=2 / chromaloc=0 / display-window=0 / max-cll=0,0 / min-luma=0 / max-luma=1023 / log2-max-poc-lsb=8 / vui-timing-info / vui-hrd-info / slices=1 / no-opt-qp-pps / no-opt-ref-list-length-pps / no-multi-pass-opt-rps / scenecut-bias=0.05 / no-opt-cu-delta-qp / no-aq-motion / no-hdr / no-hdr-opt / no-dhdr10-opt / no-idr-recovery-sei / analysis-reuse-level=5 / scale-factor=0 / refine-intra=0 / refine-inter=0 / refine-mv=0 / refine-ctu-distortion=0 / no-limit-sao / ctu-info=0 / no-lowpass-dct / refine-analysis-type=0 / copy-pic=1 / max-ausize-factor=1.0 / no-dynamic-refine / no-single-sei / no-hevc-aq / qp-adaptation-range=1.00
Default                                  : Yes
Forced                                   : No

Audio #1
ID                                       : 2
Format                                   : AC-3
Format/Info                              : Audio Coding 3
Codec ID                                 : A_AC3
Duration                                 : 1 h 59 min
Bit rate mode                            : Constant
Bit rate                                 : 448 kb/s
Channel(s)                               : 6 channels
Channel positions                        : Front: L C R, Side: L R, LFE
Sampling rate                            : 48.0 kHz
Frame rate                               : 31.250 FPS (1536 SPF)
Bit depth                                : 16 bits
Compression mode                         : Lossy
Stream size                              : 384 MiB (6%)
Title                                    : 5.1 @ 448 kbps -  Blu-ray EUR
Language                                 : Ukrainian
Service kind                             : Complete Main
Default                                  : Yes
Forced                                   : Yes

Audio #2
ID                                       : 3
Format                                   : AC-3
Format/Info                              : Audio Coding 3
Codec ID                                 : A_AC3
Duration                                 : 1 h 59 min
Bit rate mode                            : Constant
Bit rate                                 : 640 kb/s
Channel(s)                               : 6 channels
Channel positions                        : Front: L C R, Side: L R, LFE
Sampling rate                            : 48.0 kHz
Frame rate                               : 31.250 FPS (1536 SPF)
Bit depth                                : 16 bits
Compression mode                         : Lossy
Stream size                              : 548 MiB (8%)
Title                                    : Original - 5.1 @ 640 kbps
Language                                 : English
Service kind                             : Complete Main
Default                                  : No
Forced                                   : No

Text #1
ID                                       : 4
Format                                   : UTF-8
Codec ID                                 : S_TEXT/UTF8
Codec ID/Info                            : UTF-8 Plain Text
Duration                                 : 1 h 57 min
Bit rate                                 : 0 b/s
Count of elements                        : 12
Stream size                              : 781 Bytes (0%)
Title                                    : Forced
Language                                 : Ukrainian
Default                                  : Yes
Forced                                   : Yes

Text #2
ID                                       : 5
Format                                   : UTF-8
Codec ID                                 : S_TEXT/UTF8
Codec ID/Info                            : UTF-8 Plain Text
Duration                                 : 1 h 58 min
Bit rate                                 : 95 b/s
Count of elements                        : 1733
Stream size                              : 82.9 KiB (0%)
Title                                    : Full
Language                                 : Ukrainian
Default                                  : No
Forced                                   : No

Text #3
ID                                       : 6
Format                                   : UTF-8
Codec ID                                 : S_TEXT/UTF8
Codec ID/Info                            : UTF-8 Plain Text
Duration                                 : 7 s 464 ms
Bit rate                                 : 114 b/s
Count of elements                        : 3
Stream size                              : 107 Bytes (0%)
Title                                    : Forced
Language                                 : English
Default                                  : No
Forced                                   : No

Text #4
ID                                       : 7
Format                                   : UTF-8
Codec ID                                 : S_TEXT/UTF8
Codec ID/Info                            : UTF-8 Plain Text
Duration                                 : 1 h 49 min
Bit rate                                 : 62 b/s
Count of elements                        : 1711
Stream size                              : 50.3 KiB (0%)
Title                                    : Full
Language                                 : English
Default                                  : No
Forced                                   : No

Menu
00:00:00.000                             : en:Chapter 01
00:05:37.336                             : en:Chapter 03
00:09:15.471                             : en:Chapter 05
00:14:06.720                             : en:Chapter 07
00:19:40.470                             : en:Chapter 09
00:22:59.002                             : en:Chapter 11
00:27:10.253                             : en:Chapter 13
00:31:37.645                             : en:Chapter 15
00:39:11.974                             : en:Chapter 17
00:43:41.118                             : en:Chapter 19
00:47:46.613                             : en:Chapter 21
00:52:32.190                             : en:Chapter 23
00:59:10.255                             : en:Chapter 25
01:02:00.133                             : en:Chapter 27
01:07:12.069                             : en:Chapter 29
01:09:54.815                             : en:Chapter 31
01:13:11.720                             : en:Chapter 33
01:18:27.452                             : en:Chapter 35
01:22:45.502                             : en:Chapter 37
01:27:51.808                             : en:Chapter 39
01:32:36.717                             : en:Chapter 41
01:39:38.138                             : en:Chapter 43
01:47:20.142                             : en:Chapter 45
01:50:36.713                             : en:Chapter 47
01:59:43.926                             : en:Chapter 49
Світлини




Джерело: &
Особиста оцінка: 0 - не дивився


 Трекер:    Зареєстрований   

Завантажити / скачати фільм українською



відео для новачків



 Зареєстрований:   2019-07-19 11:15
 Розмір:   6.66 GB 
 Оцінка фільму:   9.1/10 (Голосів: 8)
   
Ваш часовий пояс: GMT + 2 Години

Нова тема   Відповісти