Діви дикого сезону / Арабуру / Araburu Kisetsu no Otome-domo yo (серій 7 з 12) (2019) 720p Jap | sub Ukr

Нові коментарі

Нова тема   Відповісти
Автор Повідомлення
Amanogawa 
VIP


З нами з: 27.09.17
Востаннє: 20.02.20
Повідомлень: 619

2019-07-17 22:01  
Діви дикого сезону / Araburu Kisetsu no Otome-domo yo (серій 7 з 12) (2019) 720p Jap | sub Ukr



Жанр: анімація, драма, комедія, шьонен
Країна: Японія



Кінокомпанія: Lay-duce
Режисер: Масахіро Андо, Такуро Цукада
Сюжет:
Дівчата із літературного клубу отримують злегка несподіване питання. І все було б добре, але одна з них на питання "Що ти хочеш зробити перед смертю?" відповіла "Секс". І з цього моменту починається видовищний круговорот незручних, веселих, непередбачуваних ситуацій, що нашим героїням трохи зносить голову.


Тривалість серії: Усього в сезоні 12 серій по приблизно 24 хв кожна, без пропусків.

Якість:
Відео:
кодек:
розмір кадру: 1280*720
бітрейт: 821 кб/с

Аудіо:
мова: японська
переклад: оригінал
кодек: 2.0
бітрейт: 157 кб/с

Субтитри:
мова: українська
тип: програмні (м'які)
формат: *.

мова: англійська
тип: програмні (м'які)
формат: *.
Info
Unique ID : 290321005268230716709743246727164382112 (0xDA69CAB05441DBE1DA34EA6DE68ECBA0)
Complete name : C:\Users\Roman\Desktop\01 - Діви дикого сезону.
Format :
Format version : Version 4
File size : 169 MiB
Duration : 24 min 4 s
Overall bit rate : 982 kb/s
Encoded date : UTC 2019-07-17 19:50:11
Writing application : v31.0.0 ('Dolores In A Shoestand') 64-bit
Writing library : libebml v1.3.6 + v1.4.9
Attachments : OpenSans-Semibold.ttf

Video
ID : 1
Format : AVC
Format/Info : Advanced Video Codec
Format profile : [email protected]
Format settings : CABAC / 6 Ref Frames
Format settings, CABAC : Yes
Format settings, Reference : 6 frames
Codec ID : V_MPEG4/ISO/AVC
Duration : 24 min 4 s
Bit rate : 821 kb/s
Width : 1 280 pixels
Height : 720 pixels
Display aspect ratio : 16:9
Frame rate mode : Constant
Frame rate : 23.976 (24000/1001) FPS
Color space : YUV
Chroma subsampling : 4:2:0
Bit depth : 8 bits
Scan type : Progressive
Bits/(Pixel*Frame) : 0.037
Stream size : 141 MiB (84%)
Writing library : core 148
Encoding settings : cabac=1 / ref=6 / deblock=1:0:0 / analyse=0x3:0x113 / me=hex / subme=7 / psy=1 / psy_rd=1.00:0.00 / mixed_ref=1 / me_range=16 / chroma_me=1 / trellis=1 / 8x8dct=1 / cqm=0 / deadzone=21,11 / fast_pskip=1 / chroma_qp_offset=-2 / threads=22 / lookahead_threads=3 / sliced_threads=0 / nr=0 / decimate=1 / interlaced=0 / bluray_compat=0 / constrained_intra=0 / bframes=3 / b_pyramid=2 / b_adapt=1 / b_bias=0 / direct=1 / weightb=1 / open_gop=0 / weightp=2 / keyint=90 / keyint_min=9 / scenecut=0 / intra_refresh=0 / rc_lookahead=40 / rc=crf / mbtree=1 / crf=22.0 / qcomp=0.60 / qpmin=0 / qpmax=69 / qpstep=4 / vbv_maxrate=11100 / vbv_bufsize=111000 / crf_max=0.0 / nal_hrd=none / filler=0 / ip_ratio=1.40 / aq=1:1.00
Default : Yes
Forced : No

Audio
ID : 2
Format : LC
Format/Info : Advanced Audio Codec Low Complexity
Codec ID : A_AAC-2
Duration : 24 min 4 s
Bit rate : 157 kb/s
Channel(s) : 2 channels
Channel layout : L R
Sampling rate : 48.0 kHz
Frame rate : 46.875 FPS (1024 SPF)
Compression mode : Lossy
Delay relative to video : -43 ms
Stream size : 27.1 MiB (16%)
Title : Japanese
Language : Japanese
Default : Yes
Forced : No

Text
ID : 3
Format :
Codec ID : S_TEXT/
Codec ID/Info : Advanced Sub Station Alpha
Duration : 23 min 52 s
Bit rate : 157 b/s
Count of elements : 390
Compression mode : Lossless
Stream size : 27.6 KiB (0%)
Title : Mitsuruki
Language : Ukrainian
Default : Yes
Forced : Yes
Скріншоти




Переклад: PriFak, Haku, Lia Kim, Суан
Редагування: PriFak

Джерело: Horrible Subs & Переклади Mitsuruki


Золотий реліз (завантажене не впливає на рейтинг)
 Трекер:    Зареєстрований   

Завантажити / скачати аніме українською



відео для новачків



 Зареєстрований:   2019-10-18 09:54
 Розмір:   1.2 GB 
 Оцінка аніме:   9.5/10 (Голосів: 10)
   
Amanogawa 
VIP


З нами з: 27.09.17
Востаннє: 20.02.20
Повідомлень: 619

2019-07-17 22:02  
Можливо роздача ще не ідеальна
Amanogawa 
VIP


З нами з: 27.09.17
Востаннє: 20.02.20
Повідомлень: 619

2019-07-27 19:25  
Додана 2 серія
Amanogawa 
VIP


З нами з: 27.09.17
Востаннє: 20.02.20
Повідомлень: 619

2019-08-12 20:50  
Додана 3 серія та нова назва папки
bebebebebebebe 
Свій


З нами з: 22.01.18
Востаннє: 20.02.20
Повідомлень: 137

2019-08-27 10:23  
Воно шикарне :-) Дуже цікаво дивитися, персонажі дуже живі. Сподіваюся, доперекладаєте все Happy
Amanogawa 
VIP


З нами з: 27.09.17
Востаннє: 20.02.20
Повідомлень: 619

2019-09-02 09:24  
Додано 4ту серію!
11FrYkT 
Модератор відео


З нами з: 20.02.11
Востаннє: 21.02.20
Повідомлень: 6502

2019-09-10 08:22  
Mitsuruki , додайте назву і перелік серій
Amanogawa 
VIP


З нами з: 27.09.17
Востаннє: 20.02.20
Повідомлень: 619

2019-09-24 18:11  
Ми додали шосту серію!
Amanogawa 
VIP


З нами з: 27.09.17
Востаннє: 20.02.20
Повідомлень: 619

2019-10-18 09:54  
Додали сьому серію!
Ваш часовий пояс: GMT + 2 Години

Нова тема   Відповісти