Бебі Бос / The Boss Baby (2017) 1080p H.265 Ukr/Eng | Sub Ukr/Eng

Нові коментарі

Нова тема   Відповісти
Автор Повідомлення
Anonymous 







2019-07-17 19:28  
Бебі Бос / The Boss Baby (2017) 1080p H.265 Ukr/Eng | Sub Ukr/Eng

Бебі Бос / The Boss Baby (2017) 1080p H.265 Ukr/Eng | Sub Ukr/Eng


Жанр: анімація, комедія, сімейний
Країна: США
Кінокомпанія: DreamWorks Animation
Режисер: Том МакГрат / Tom McGrath
Актори: Алек Болдвін, Стів Бушемі, Ліза Кудроу, Джиммі Кіммел, Майлз Крістофер Бакші, Тобі Магвайр та інші

Сюжет:
Багатьом відомо, як це – коли в родині з'являється молодший брат або сестра. Всю свою увагу і любов батьки приділяють крихітному карапузові, що не замовкає ні на мить. Коли маленький брат з'явився у семирічного Тіма, дива не сталося. Як зачаровані, тато і мама виконували всі забаганки крикливого немовляти. Намагаючись повернути увагу батьків, Тім дізнається, що існує таємна змова. Спеціальні агенти роблять все, щоб дестабілізувати баланс любові в світі. Тепер наш герой просто зобов'язаний зробити все від нього залежне, щоб врятувати дорослих від страшної загрози і повернути в родину баланс миру та любові.

Тривалість: 01:37:30
Якість:
Відео:
кодек: H.265 (HEVC)
розмір кадру: 1920 x 816
бітрейт: 4 188 кб/с
бітова глибина: 10 біт
Увага! Перед завантаженням переконайтесь, що ваш пристрій відтворення (та/або ПЗ) підтримує H.265 (HEVC)

Аудіо # 1:
мова: українська
переклад: професійний дубльований
кодек: AC-3 5.1
бітрейт: 448 кб/с

Аудіо # 2:
мова: англійська
переклад: оригінал
кодек: 7.1
бітрейт: 1510 кб/с

Субтитри # 1:
мова: українська (Forced),
тип: програмні (м'які)
формат: *.srt

Субтитри # 2:
мова: українська (Full),
тип: програмні (м'які)
формат: *.srt

Субтитри # 3:
мова: англійська (Full),
тип: програмні (м'які)
формат: *.srt


Info
Код:
General
Unique ID                                : 48824542478070406192750701608084276011 (0x24BB43CC6B87992F3AC3B185ECED832B)
Complete name                            : The Boss Baby (2017) 1080p H.265 [UKR_ENG] [Hurtom].
Format                                   :
Format version                           : Version 4 / Version 2
File size                                : 4.19 GiB
Duration                                 : 1 h 37 min
Overall bit rate                         : 6 149 kb/s
Movie name                               : Бебі Бос / The Boss Baby (2017)
Encoded date                             : UTC 2019-07-15 14:28:38
Writing application                      : v20.0.0 ('I Am The Sun') 64-bit
Writing library                          : libebml v1.3.5 + v1.4.8
Cover                                    : Yes
Attachments                              : cover.jpg

Video
ID                                       : 1
Format                                   : HEVC
Format/Info                              : High Efficiency Video Coding
Format profile                           : Main [email protected]@High
Codec ID                                 : V_MPEGH/ISO/HEVC
Duration                                 : 1 h 37 min
Bit rate                                 : 4 189 kb/s
Width                                    : 1 920 pixels
Height                                   : 816 pixels
Display aspect ratio                     : 2.35:1
Frame rate mode                          : Constant
Frame rate                               : 23.976 (24000/1001) FPS
Color space                              : YUV
Chroma subsampling                       : 4:2:0
Bit depth                                : 10 bits
Bits/(Pixel*Frame)                       : 0.112
Stream size                              : 2.85 GiB (68%)
Title                                    : Бебі Бос / The Boss Baby (2017)
Writing library                          : x265 2.8+74-fd517ae68f93:[Windows][GCC 7.3.0][64 bit] 10bit
Encoding settings                        : cpuid=1049583 / frame-threads=5 / numa-pools=4 / wpp / no-pmode / no-pme / no-psnr / no-ssim / log-level=3 / input-csp=1 / input-res=1920x816 / interlace=0 / total-frames=0 / level-idc=41 / high-tier=1 / uhd-bd=0 / ref=4 / allow-non-conformance / no-repeat-headers / annexb / no-aud / no-hrd / info / hash=0 / no-temporal-layers / open-gop / min-keyint=24 / keyint=240 / gop-lookahead=0 / bframes=8 / b-adapt=2 / b-pyramid / bframe-bias=0 / rc-lookahead=40 / lookahead-slices=5 / scenecut=40 / radl=0 / no-intra-refresh / ctu=64 / min-cu-size=8 / no-rect / no-amp / max-tu-size=32 / tu-inter-depth=1 / tu-intra-depth=1 / limit-tu=0 / rdoq-level=0 / dynamic-rd=0.00 / no-ssim-rd / signhide / no-tskip / nr-intra=0 / nr-inter=0 / no-constrained-intra / strong-intra-smoothing / max-merge=2 / limit-refs=3 / no-limit-modes / me=3 / subme=7 / merange=57 / temporal-mvp / weightp / no-weightb / no-analyze-src-pics / deblock=-3:-3 / no-sao / no-sao-non-deblock / rd=3 / no-early-skip / rskip / no-fast-intra / no-tskip-fast / no-cu-lossless / no-b-intra / no-splitrd-skip / rdpenalty=0 / psy-rd=2.00 / psy-rdoq=0.00 / no-rd-refine / no-lossless / cbqpoffs=0 / crqpoffs=0 / rc=crf / crf=16.0 / qcomp=0.60 / qpstep=4 / stats-write=0 / stats-read=0 / vbv-maxrate=50000 / vbv-bufsize=50000 / vbv-init=0.9 / crf-max=0.0 / crf-min=0.0 / ipratio=1.40 / pbratio=1.30 / aq-mode=1 / aq-strength=1.00 / cutree / zone-count=0 / no-strict-cbr / qg-size=32 / no-rc-grain / qpmax=69 / qpmin=0 / no-const-vbv / sar=1 / overscan=0 / videoformat=5 / range=0 / colorprim=1 / transfer=1 / colormatrix=1 / chromaloc=0 / display-window=0 / max-cll=0,0 / min-luma=0 / max-luma=1023 / log2-max-poc-lsb=8 / vui-timing-info / vui-hrd-info / slices=1 / no-opt-qp-pps / no-opt-ref-list-length-pps / no-multi-pass-opt-rps / scenecut-bias=0.05 / no-opt-cu-delta-qp / no-aq-motion / no-hdr / no-hdr-opt / no-dhdr10-opt / no-idr-recovery-sei / analysis-reuse-level=5 / scale-factor=0 / refine-intra=0 / refine-inter=0 / refine-mv=0 / no-limit-sao / ctu-info=0 / no-lowpass-dct / refine-mv-type=0 / copy-pic=1 / max-ausize-factor=1.0 / no-dynamic-refine / no-single-sei
Language                                 : English
Default                                  : Yes
Forced                                   : No
Color range                              : Limited
Color primaries                          : BT.709
Transfer characteristics                 : BT.709
Matrix coefficients                      : BT.709

Audio #1
ID                                       : 2
Format                                   : AC-3
Format/Info                              : Audio Coding 3
Codec ID                                 : A_AC3
Duration                                 : 1 h 37 min
Bit rate mode                            : Constant
Bit rate                                 : 448 kb/s
Channel(s)                               : 6 channels
Channel positions                        : Front: L C R, Side: L R, LFE
Sampling rate                            : 48.0 kHz
Frame rate                               : 31.250 FPS (1536 SPF)
Bit depth                                : 16 bits
Compression mode                         : Lossy
Stream size                              : 312 MiB (7%)
Title                                    : ПД - 5.1 @ 448 kbps - Blu-Ray
Language                                 : Ukrainian
Service kind                             : Complete Main
Default                                  : Yes
Forced                                   : Yes

Audio #2
ID                                       : 3
Format                                   :
Format/Info                              : Digital Theater Systems
Format profile                           : ES Matrix / Core
Codec ID                                 : A_DTS
Duration                                 : 1 h 37 min
Bit rate mode                            : Constant
Bit rate                                 : 1 509 kb/s
Channel(s)                               : 7 channels / 6 channels
Channel positions                        : Front: L C R, Side: L R, Back: C, LFE / Front: L C R, Side: L R, LFE
Sampling rate                            : 48.0 kHz
Frame rate                               : 93.750 FPS (512 SPF)
Bit depth                                : 24 bits
Compression mode                         : Lossy
Stream size                              : 1.03 GiB (25%)
Title                                    : Original - 5.1 @ 1509 kbps
Language                                 : English
Default                                  : No
Forced                                   : No

Text #1
ID                                       : 4
Format                                   : UTF-8
Codec ID                                 : S_TEXT/UTF8
Codec ID/Info                            : UTF-8 Plain Text
Duration                                 : 1 h 19 min
Bit rate                                 : 0 b/s
Count of elements                        : 20
Stream size                              : 450 Bytes (0%)
Title                                    : Forced
Language                                 : Ukrainian
Default                                  : Yes
Forced                                   : Yes

Text #2
ID                                       : 5
Format                                   : UTF-8
Codec ID                                 : S_TEXT/UTF8
Codec ID/Info                            : UTF-8 Plain Text
Duration                                 : 1 h 36 min
Bit rate                                 : 96 b/s
Count of elements                        : 1590
Stream size                              : 68.4 KiB (0%)
Title                                    : Full
Language                                 : Ukrainian
Default                                  : No
Forced                                   : No

Text #3
ID                                       : 6
Format                                   : UTF-8
Codec ID                                 : S_TEXT/UTF8
Codec ID/Info                            : UTF-8 Plain Text
Duration                                 : 1 h 36 min
Bit rate                                 : 59 b/s
Count of elements                        : 1568
Stream size                              : 42.1 KiB (0%)
Title                                    : Full
Language                                 : English
Default                                  : No
Forced                                   : No

Menu
00:00:00.000                             : en:00:00:00.000
00:03:45.892                             : en:00:03:45.892
00:08:58.288                             : en:00:08:58.288
00:11:45.914                             : en:00:11:45.914
00:14:59.565                             : en:00:14:59.565
00:19:38.219                             : en:00:19:38.219
00:22:52.788                             : en:00:22:52.788
00:28:27.247                             : en:00:28:27.247
00:30:26.116                             : en:00:30:26.116
00:33:45.482                             : en:00:33:45.482
00:36:57.257                             : en:00:36:57.257
00:39:18.356                             : en:00:39:18.356
00:42:35.344                             : en:00:42:35.344
00:46:20.611                             : en:00:46:20.611
00:51:37.720                             : en:00:51:37.720
00:53:25.285                             : en:00:53:25.285
00:56:28.719                             : en:00:56:28.719
00:59:35.405                             : en:00:59:35.405
01:04:03.173                             : en:01:04:03.173
01:08:15.758                             : en:01:08:15.758
01:11:29.911                             : en:01:11:29.911
01:16:25.247                             : en:01:16:25.247
01:23:10.110                             : en:01:23:10.110
01:27:36.960                             : en:01:27:36.960
Світлини




Джерело: &
Особиста оцінка: 0 - не дивився


 Трекер:    Зареєстрований   

Завантажити / скачати мультфільм українською



відео для новачків



 Зареєстрований:   2019-07-17 19:28
 Розмір:   4.19 GB 
 Оцінка мультфільму:   9.3/10 (Голосів: 16)
   
Інші релізи
   Бебі Бос / The Boss Baby (2017) Remux 1080p Ukr/Eng | Sub Ukr/Eng staf777  3 / 0   21.58 GB   2018-01-24 23:25 
   Бебі Бос / The Boss Baby (2017) igor911  22 / 1   1.45 GB   2018-01-14 03:14 
   Бебі Бос / The Boss Baby (2017) UHD Remux 4K 2160p HDR H.265 Ukr/Eng | Sub Ukr/Eng parabola76  2 / 0   21.73 GB   2018-01-14 00:08 
   Бебі Бос / The Boss Baby (2017) 1080p 3D [Half OverUnder] Ukr/Eng | Sub Ukr/Eng Babamin  5 / 0   5.23 GB   2017-09-17 19:50 
   Бебі Бос / The Boss Baby (2017) 720p Ukr/Eng | Sub Ukr/Eng 11FrYkT  16 / 0   3.57 GB   2017-07-30 16:45 
   Бебі Бос / The Boss Baby (2017) AVC Ukr/Eng | Sub Ukr/Eng Electroz  17 / 0   1.99 GB   2017-07-28 09:21 
   Бебі Бос / The Boss Baby (2017) 1080p Ukr/Eng | Sub Ukr/Eng Electroz  7 / 0   7.02 GB   2017-07-28 09:21 
JanusK 
Новенький


З нами з: 15.01.17
Востаннє: 01.04.20
Повідомлень: 23

2019-10-15 20:31  
Дякую, друже! Ти ж в курсі що ти кращий? Wink (1)
pintg 
Поважний учасник


З нами з: 14.04.16
Востаннє: 27.03.20
Повідомлень: 164

2019-11-30 20:21  
Мені сподобалось. Автори змогли впакувати доволі актуальне психологічне питання у дуже дитячій формат, що важливо, оскільки воно у цей час вже актуальне.
сюжетні спойлери
Для дорослого глядача стрічка вельми передбачувана, але вона не для нас.

Окремо сподобалась невизначена межа між фантазією та реальністю.

Ваш часовий пояс: GMT + 2 Години

Нова тема   Відповісти