Аліта: Бойовий ангел / Alita: Battle Angel (2019) 1080p H.265 Ukr/Eng | Sub Ukr/Eng

Нові коментарі

Нова тема   Відповісти
Автор Повідомлення
Anonymous 







2019-07-17 19:20  
Аліта: Бойовий ангел / Alita: Battle Angel (2019) 1080p H.265 Ukr/Eng | Sub Ukr/Eng

Аліта: Бойовий ангел / Alita: Battle Angel (2019) 1080p H.265 Ukr/Eng | Sub Ukr/Eng


Жанр: фантастика, бойовик, трилер, пригодницький
Країна: США
Кінокомпанія: Twentieth Century Fox, Lightstorm Entertainment, Troublemaker Studios
Режисер: Роберт Родрігес
Актори: Роза Салазар, Крістоф Вальц, Дженніфер Коннеллі, Махершала Алі, Ед Скрейн, Джекі Ерл Хейлі, Хорхе Лендеборг мол., Лана Кондор

Сюжет:
XXVI століття. На планеті Земля багатії живуть у Небесному місті, бідні люди задовольняються життям у Нижньому місті, куди скидаються всі відходи та сміття. Одного разу в купі металобрухту Нижнього міста вчений знаходить частини жінки-кіборга і повертає її до життя. Прийшовши до тями, кіборг виявляє, що з її пам'яті стерто все, окрім бойових прийомів. Відтепер вона повинна знайти загублені спогади і з'ясувати, хто її відправив на звалище

Тривалість: 02:01:57
Якість:
Відео:
кодек: H.265 (HEVC)
розмір кадру: 1920 x 804
бітрейт: 9 309 кб/с
бітова глибина: 10 біт
Увага! Перед завантаженням переконайтесь, що ваш пристрій відтворення (та/або ПЗ) підтримує H.265 (HEVC)

Аудіо # 1:
мова: українська
переклад: професійний дубльований
кодек: AC-3 5.1
бітрейт: 448 кб/с

Аудіо # 2:
мова: англійська
переклад: оригінал
кодек: AC-3 5.1
бітрейт: 640 кб/с

Субтитри # 1:
мова: українська (Full),
тип: програмні (м'які)
формат: *.srt

Субтитри # 2:
мова: англійська (Full),
тип: програмні (м'які)
формат: *.srt

Субтитри # 3:
мова: англійська (SDH),
тип: програмні (м'які)
формат: *.srt


Info
Код:
General
Unique ID                                : 248898987169740589033327792282456574556 (0xBB4033853CAE324BDE4AA89531F44A5C)
Complete name                            : Alita Battle Angel (2019) 1080p H.265 [UKR_ENG] [Hurtom].
Format                                   :
Format version                           : Version 4 / Version 2
File size                                : 8.86 GiB
Duration                                 : 2 h 1 min
Overall bit rate                         : 10.4 Mb/s
Movie name                               : Аліта: Бойовий ангел / Alita: Battle Angel (2019)
Encoded date                             : UTC 2019-07-16 07:01:28
Writing application                      : v20.0.0 ('I Am The Sun') 64-bit
Writing library                          : libebml v1.3.5 + v1.4.8
Cover                                    : Yes
Attachments                              : cover.jpg

Video
ID                                       : 1
Format                                   : HEVC
Format/Info                              : High Efficiency Video Coding
Format profile                           : Main [email protected]@High
Codec ID                                 : V_MPEGH/ISO/HEVC
Duration                                 : 2 h 1 min
Bit rate                                 : 9 309 kb/s
Width                                    : 1 920 pixels
Height                                   : 804 pixels
Display aspect ratio                     : 2.40:1
Frame rate mode                          : Constant
Frame rate                               : 23.976 (24000/1001) FPS
Color space                              : YUV
Chroma subsampling                       : 4:2:0
Bit depth                                : 10 bits
Bits/(Pixel*Frame)                       : 0.252
Stream size                              : 7.93 GiB (90%)
Title                                    : Аліта: Бойовий ангел / Alita: Battle Angel (2019)
Writing library                          : x265 2.9+9-f74003e88622:[Windows][GCC 8.2.0][64 bit] 10bit
Encoding settings                        : cpuid=1111039 / frame-threads=13 / numa-pools=12 / wpp / no-pmode / no-pme / no-psnr / no-ssim / log-level=3 / input-csp=1 / input-res=1920x804 / interlace=0 / total-frames=0 / level-idc=41 / high-tier=1 / uhd-bd=0 / ref=5 / allow-non-conformance / no-repeat-headers / annexb / no-aud / no-hrd / info / hash=0 / no-temporal-layers / open-gop / min-keyint=23 / keyint=240 / gop-lookahead=0 / bframes=8 / b-adapt=2 / b-pyramid / bframe-bias=0 / rc-lookahead=60 / lookahead-slices=4 / scenecut=40 / radl=0 / no-intra-refresh / ctu=64 / min-cu-size=8 / rect / amp / max-tu-size=32 / tu-inter-depth=4 / tu-intra-depth=4 / limit-tu=0 / rdoq-level=2 / dynamic-rd=0.00 / no-ssim-rd / signhide / no-tskip / nr-intra=0 / nr-inter=0 / no-constrained-intra / no-strong-intra-smoothing / max-merge=5 / limit-refs=2 / limit-modes / me=3 / subme=7 / merange=57 / temporal-mvp / weightp / weightb / no-analyze-src-pics / deblock=-3:-3 / no-sao / no-sao-non-deblock / rd=6 / no-early-skip / rskip / no-fast-intra / no-tskip-fast / no-cu-lossless / b-intra / no-splitrd-skip / rdpenalty=0 / psy-rd=2.00 / psy-rdoq=1.00 / no-rd-refine / no-lossless / cbqpoffs=0 / crqpoffs=0 / rc=crf / crf=18.5 / qcomp=0.70 / qpstep=4 / stats-write=0 / stats-read=0 / vbv-maxrate=50000 / vbv-bufsize=50000 / vbv-init=0.9 / crf-max=0.0 / crf-min=0.0 / ipratio=1.40 / pbratio=1.30 / aq-mode=2 / aq-strength=1.00 / no-cutree / zone-count=0 / no-strict-cbr / qg-size=32 / no-rc-grain / qpmax=69 / qpmin=0 / no-const-vbv / sar=1 / overscan=0 / videoformat=5 / range=0 / colorprim=1 / transfer=1 / colormatrix=1 / chromaloc=0 / display-window=0 / max-cll=0,0 / min-luma=0 / max-luma=1023 / log2-max-poc-lsb=8 / vui-timing-info / vui-hrd-info / slices=1 / no-opt-qp-pps / no-opt-ref-list-length-pps / no-multi-pass-opt-rps / scenecut-bias=0.05 / no-opt-cu-delta-qp / aq-motion / no-hdr / no-hdr-opt / no-dhdr10-opt / no-idr-recovery-sei / analysis-reuse-level=5 / scale-factor=0 / refine-intra=0 / refine-inter=0 / refine-mv=0 / no-limit-sao / ctu-info=0 / no-lowpass-dct / refine-mv-type=0 / copy-pic=1 / max-ausize-factor=1.0 / no-dynamic-refine / no-single-sei
Language                                 : English
Default                                  : Yes
Forced                                   : No
Color range                              : Limited
Color primaries                          : BT.709
Transfer characteristics                 : BT.709
Matrix coefficients                      : BT.709

Audio #1
ID                                       : 2
Format                                   : AC-3
Format/Info                              : Audio Coding 3
Codec ID                                 : A_AC3
Duration                                 : 2 h 1 min
Bit rate mode                            : Constant
Bit rate                                 : 448 kb/s
Channel(s)                               : 6 channels
Channel positions                        : Front: L C R, Side: L R, LFE
Sampling rate                            : 48.0 kHz
Frame rate                               : 31.250 FPS (1536 SPF)
Bit depth                                : 16 bits
Compression mode                         : Lossy
Stream size                              : 391 MiB (4%)
Title                                    : ПД - Blu-Ray
Language                                 : Ukrainian
Service kind                             : Complete Main
Default                                  : Yes
Forced                                   : Yes

Audio #2
ID                                       : 3
Format                                   : AC-3
Format/Info                              : Audio Coding 3
Codec ID                                 : A_AC3
Duration                                 : 2 h 1 min
Bit rate mode                            : Constant
Bit rate                                 : 640 kb/s
Channel(s)                               : 6 channels
Channel positions                        : Front: L C R, Side: L R, LFE
Sampling rate                            : 48.0 kHz
Frame rate                               : 31.250 FPS (1536 SPF)
Bit depth                                : 16 bits
Compression mode                         : Lossy
Stream size                              : 558 MiB (6%)
Title                                    : Original
Language                                 : English
Service kind                             : Complete Main
Default                                  : No
Forced                                   : No

Text #1
ID                                       : 4
Format                                   : UTF-8
Codec ID                                 : S_TEXT/UTF8
Codec ID/Info                            : UTF-8 Plain Text
Duration                                 : 2 h 1 min
Bit rate                                 : 48 b/s
Count of elements                        : 1254
Stream size                              : 43.4 KiB (0%)
Title                                    : Full
Language                                 : Ukrainian
Default                                  : Yes
Forced                                   : No

Text #2
ID                                       : 5
Format                                   : UTF-8
Codec ID                                 : S_TEXT/UTF8
Codec ID/Info                            : UTF-8 Plain Text
Duration                                 : 1 h 55 min
Bit rate                                 : 41 b/s
Count of elements                        : 1347
Stream size                              : 34.9 KiB (0%)
Title                                    : Full
Language                                 : English
Default                                  : No
Forced                                   : No

Text #3
ID                                       : 6
Format                                   : UTF-8
Codec ID                                 : S_TEXT/UTF8
Codec ID/Info                            : UTF-8 Plain Text
Duration                                 : 1 h 56 min
Bit rate                                 : 46 b/s
Count of elements                        : 1590
Stream size                              : 39.5 KiB (0%)
Title                                    : SDH
Language                                 : English
Default                                  : No
Forced                                   : No

Menu
00:00:00.000                             : en:Chapter 01
00:03:28.625                             : en:Chapter 02
00:07:51.680                             : en:Chapter 03
00:10:07.982                             : en:Chapter 04
00:13:06.703                             : en:Chapter 05
00:15:06.739                             : en:Chapter 06
00:18:04.542                             : en:Chapter 07
00:22:58.711                             : en:Chapter 08
00:25:35.325                             : en:Chapter 09
00:31:40.899                             : en:Chapter 10
00:33:29.216                             : en:Chapter 11
00:36:32.816                             : en:Chapter 12
00:38:30.892                             : en:Chapter 13
00:42:05.481                             : en:Chapter 14
00:45:58.214                             : en:Chapter 15
00:48:31.450                             : en:Chapter 16
00:52:57.007                             : en:Chapter 17
00:55:14.353                             : en:Chapter 18
01:00:39.761                             : en:Chapter 19
01:02:56.564                             : en:Chapter 20
01:05:16.788                             : en:Chapter 21
01:10:50.496                             : en:Chapter 22
01:13:37.288                             : en:Chapter 23
01:16:35.216                             : en:Chapter 24
01:18:52.227                             : en:Chapter 25
01:22:48.297                             : en:Chapter 26
01:24:55.340                             : en:Chapter 27
01:28:25.217                             : en:Chapter 28
01:33:18.551                             : en:Chapter 29
01:36:08.763                             : en:Chapter 30
01:41:54.692                             : en:Chapter 31
01:45:23.442                             : en:Chapter 32
01:48:16.490                             : en:Chapter 33
01:51:43.655                             : en:Chapter 34
01:54:43.668                             : en:Chapter 35
01:56:51.504                             : en:Chapter 36
Світлини




Джерело: &
Особиста оцінка: 0 - не дивився


 Трекер:    Зареєстрований   

Завантажити / скачати фільм українською



відео для новачків



 Зареєстрований:   2019-07-17 19:20
 Розмір:   8.86 GB 
 Оцінка фільму:   9.3/10 (Голосів: 18)
   
Інші релізи
   Аліта: Бойовий ангел / Alita: Battle Angel (2019) UHD 4K 2160p HDR x265 Ukr/Eng | Sub Eng Babamin  13 / 1   16.22 GB   2019-07-17 18:43 
   Аліта: Бойовий ангел / Alita: Battle Angel (2019) 1080p 3D [Half SideBySide] Ukr/Eng | Sub Ukr/Eng дядя1111  7 / 3   13.17 GB   2019-07-16 11:29 
   Аліта: Бойовий ангел / Alita: Battle Angel (2019) Ukr/Eng antik_2008  30 / 1   2.48 GB   2019-07-15 13:33 
   Аліта: Бойовий ангел / Alita: Battle Angel (2019) [Open Matte] Ukr/Eng antik_2008  6 / 0   2.47 GB   2019-07-15 13:05 
   Аліта: Бойовий ангел / Alita: Battle Angel (2019) 1080p Ukr/Eng | Sub Ukr/Eng staf777  55 / 1   7.38 GB   2019-07-14 22:44 
   Аліта: Бойовий ангел / Alita: Battle Angel (2019) [Open Matte] AVC Ukr/Eng | Sub Ukr/Eng 11FrYkT  8 / 0   3.67 GB   2019-07-14 21:15 
   Аліта: Бойовий ангел / Alita: Battle Angel (2019) Remux 1080p Ukr/Eng | Sub Ukr/Eng staf777  17 / 0   24.6 GB   2019-07-14 21:06 
   Аліта: Бойовий ангел / Alita: Battle Angel (2019) 1080p [Open Matte] Ukr/Eng | Sub Ukr/Eng igor911  21 / 0   7.46 GB   2019-07-14 16:53 
   Аліта: Бойовий ангел / Alita: Battle Angel (2019) UHD Remux 4K 2160p HDR H.265 Ukr/Eng | Sub Ukr/Eng Babamin  14 / 1   40.52 GB   2019-07-14 15:10 
   Аліта: Бойовий ангел / Alita: Battle Angel (2019) AVC Ukr/Eng | Sub Ukr/Eng 11FrYkT  49 / 0   2.4 GB   2019-07-14 14:17 
   Аліта: Бойовий ангел / Alita: Battle Angel (2019) 720p Ukr/Eng | Sub Ukr/Eng 11FrYkT  26 / 1   5.41 GB   2019-07-14 13:45 
   Аліта: Бойовий ангел / Alita: Battle Angel (2019) igor911  13 / 0   1.45 GB   2019-07-14 13:17 
Ваш часовий пояс: GMT + 2 Години

Нова тема   Відповісти