Ананасовий експрес / Pineapple Express (2008) Remux 1080p 2xUkr/Eng | Sub Ukr/Eng

Нові коментарі

Нова тема   Відповісти
Автор Повідомлення
IronBee 
Поважний учасник


З нами з: 08.02.10
Востаннє: 03.06.20
Повідомлень: 231

2019-07-17 16:46  
Ананасовий експрес / Pineapple Express (2008) Remux 1080p 2xUkr/Eng | Sub Ukr/Eng

Ананасовий експрес / Pineapple Express (2008) Remux 1080p 2xUkr/Eng | Sub Ukr/Eng


Жанр: комедія, пригодницький, кримінальний
Країна: США



Кінокомпанія: Apatow Productions, Columbia Pictures, Relativity Media
Режисер: Девід Ґордон Ґрін / David Gordon Green
Актори: Сет Роґен / Seth Rogen, Джеймс Франко / James Franco, Денні МакБрайд / Danny McBride, Кевін Корріґан / Kevin Corrigan, Крейґ Робінсон / Craig Robinson, Ґарі Кол / Gary Cole, Розі Перез / Rosie Perez, Ed Begley Jr. / Ед Беґлі Мол., Нора Данн / Nora Dunn, Ембер Герд / Amber Heard, Джо Ло Труліо / Joe Lo Truglio, Артур Напіонтек / Arthur Napiontek, Cleo King / Клео Кінґ, Білл Хадер / Bill Hader, Джеймс Ремар / James Remar

Сюжет:
Роздовбай випадково стає свідком вбивства і, прихопивши свого друзяку, любителя покурити травичку і такого ж невдаху, як і він, намагається звалити з міста, рятуючись від поганих хлопців. Справа пахне смаженим, адже мафія вирішила змусити приятелів замовкнути назавжди.


Тривалість: 01:52:02
Якість: Remux
Відео:
кодек:
розмір кадру: 1920 х 1080
бітрейт: 20.4 Mб/с

Аудіо # 1:
мова: українська
переклад: багатоголосий закадровий | 1+1
кодек: 2.0
бітрейт: 192 кб/с

Аудіо # 2:
мова: українська
переклад: двоголосий закадровий | Новий канал
кодек: 2.0
бітрейт: 192 кб/с

Аудіо # 3:
мова: англійська
переклад: оригінал
кодек: 5.1
бітрейт: 1510 кб/с

Аудіо # 3:
мова: англійська
переклад: коментарі
кодек: 5.1
бітрейт: 640 кб/с

Субтитри:
мова: українська
тип: програмні (м'які)
формат: *.srt

Субтитри:
мова: англійська
тип: програмні (м'які)
формат: *.srt
Info
General
Unique ID : 26943134323133732090634096991424536065 (0x14450F154E6443E3F41D2F2CEEA8DE01)
Complete name : D:\Films\Ананасовий експрес Pineapple Express (2008) Remux 1080p 2xUkrEng Sub Eng[Hurtom].
Format :
Format version : Version 4
File size : 18.0 GiB
Duration : 1 h 53 min
Overall bit rate mode : Variable
Overall bit rate : 22.8 Mb/s
Encoded date : UTC 2019-07-17 13:31:49
Writing application : v35.0.0 ('All The Love In The World') 64-bit
Writing library : libebml v1.3.9 + v1.5.2

Video
ID : 1
Format : AVC
Format/Info : Advanced Video Codec
Format profile : [email protected]
Format settings : CABAC / 4 Ref Frames
Format settings, CABAC : Yes
Format settings, ReFrames : 4 frames
Format settings, GOP : M=3, N=12
Codec ID : V_MPEG4/ISO/AVC
Duration : 1 h 52 min
Bit rate mode : Variable
Bit rate : 20.4 Mb/s
Maximum bit rate : 35.0 Mb/s
Width : 1 920 pixels
Height : 1 080 pixels
Display aspect ratio : 16:9
Frame rate mode : Constant
Frame rate : 23.976 (24000/1001) FPS
Color space : YUV
Chroma subsampling : 4:2:0
Bit depth : 8 bits
Scan type : Progressive
Bits/(Pixel*Frame) : 0.411
Stream size : 16.0 GiB (89%)
Language : English
Default : Yes
Forced : No
Color range : Limited
Color primaries : BT.709
Transfer characteristics : BT.709
Matrix coefficients : BT.709

Audio #1
ID : 2
Format : AC-3
Format/Info : Audio Coding 3
Commercial name : Dolby Digital
Codec ID : A_AC3
Duration : 1 h 52 min
Bit rate mode : Constant
Bit rate : 192 kb/s
Channel(s) : 2 channels
Channel layout : L R
Sampling rate : 48.0 kHz
Frame rate : 31.250 FPS (1536 SPF)
Bit depth : 16 bits
Compression mode : Lossy
Stream size : 154 MiB (1%)
Title : 2.0 192 кб/с багатоголосий закадровий 1+1
Language : Ukrainian
Service kind : Complete Main
Default : Yes
Forced : No

Audio #2
ID : 3
Format : AC-3
Format/Info : Audio Coding 3
Commercial name : Dolby Digital
Codec ID : A_AC3
Duration : 1 h 52 min
Bit rate mode : Constant
Bit rate : 192 kb/s
Channel(s) : 2 channels
Channel layout : L R
Sampling rate : 48.0 kHz
Frame rate : 31.250 FPS (1536 SPF)
Bit depth : 16 bits
Compression mode : Lossy
Stream size : 154 MiB (1%)
Title : 2.0 192 кб/с двоголосий закадровий Новий канал
Language : Ukrainian
Service kind : Complete Main
Default : No
Forced : No

Audio #3
ID : 4
Format :
Format/Info : Digital Theater Systems
Codec ID : A_DTS
Duration : 1 h 52 min
Bit rate mode : Constant
Bit rate : 1 510 kb/s
Channel(s) : 6 channels
Channel layout : C L R Ls Rs LFE
Sampling rate : 48.0 kHz
Frame rate : 93.750 FPS (512 SPF)
Bit depth : 24 bits
Compression mode : Lossy
Stream size : 1.18 GiB (7%)
Title : 5.1 1536 kbps
Language : English
Default : No
Forced : No

Audio #4
ID : 5
Format : AC-3
Format/Info : Audio Coding 3
Commercial name : Dolby Digital
Codec ID : A_AC3
Duration : 1 h 52 min
Bit rate mode : Constant
Bit rate : 640 kb/s
Channel(s) : 2 channels
Channel layout : L R
Sampling rate : 48.0 kHz
Frame rate : 31.250 FPS (1536 SPF)
Bit depth : 16 bits
Compression mode : Lossy
Stream size : 513 MiB (3%)
Title : Commentary by Director and Actors 2.0 640 kbps
Language : English
Service kind : Complete Main
Default : No
Forced : No

Text #1
ID : 6
Format : UTF-8
Codec ID : S_TEXT/UTF8
Codec ID/Info : UTF-8 Plain Text
Duration : 1 h 52 min
Bit rate : 110 b/s
Count of elements : 1873
Stream size : 91.6 KiB (0%)
Language : Ukrainian
Default : Yes
Forced : No

Text #2
ID : 7
Format : UTF-8
Codec ID : S_TEXT/UTF8
Codec ID/Info : UTF-8 Plain Text
Duration : 1 h 46 min
Bit rate : 91 b/s
Count of elements : 1956
Stream size : 71.6 KiB (0%)
Language : English
Default : No
Forced : No
Скріншоти



Вдячний за працю: МАКАРОННІК, ratbol i sando7 - запис звуку з ТБ, Gelios - синхронізація доріжок та українізований постер, Віктор - готові українські субтитри

Джерело: &
Особиста оцінка: 8 - мені сподобалося


Золотий реліз (завантажене не впливає на рейтинг)
 Трекер:    Зареєстрований   

Завантажити / скачати фільм українською



відео для новачків



 Зареєстрований:   2019-07-17 16:46
 Розмір:   17.97 GB 
 Оцінка фільму:   9.7/10 (Голосів: 6)
   
Інші релізи
Ваш часовий пояс: GMT + 2 Години

Нова тема   Відповісти