Ґівен / Given (1-2 з 11) (2019) 720p Ukr/Jap | sub Ukr

Нові коментарі

Нова тема   Відповісти
Автор Повідомлення
Mitsuruki 
VIP


З нами з: 27.09.17
Востаннє: 20.09.19
Повідомлень: 501

2019-07-17 12:57  
Ґівен / Given (1-2 з 11) (2019) 720p Ukr/Jap | sub Ukr



Жанр: Драма, Музичний, Романтика, Шьонен-ай
Країна: Японія



Кінокомпанія: Lerche
Режисер: Ямаґучі Хікару
Сюжет:
В улюбленому шкільному місці для сну Уеноями з'явився загадковий хлопчина з гітарою, що мала іржаві струни. Уенояма зголосився їх замінити і раптом той хлопчина, Мафую, просить його: "Навчи мене грати на гітарі". З того часу, Мафую всюди ходив за Уеноямою і продовжував випрошувати. Як кажуть, вода камінь точить. Але почувши спів Мафую, Уенояма вже не зміг опиратися.


Тривалість: 1 серія: 22:57 (цілком серій: 2)
Перелік серій
1. Хлопці з гурту.
2. Як хтось закоханий.
Якість:
Відео:
кодек:
розмір кадру: 1280х720
бітрейт: 1 621 кб/с

Аудіо # 1:
мова: українська
переклад: багатоголосий закадровий
кодек: 2.0
бітрейт: 265 кб/с

Аудіо # 2:
мова: японська
переклад: оригінал
кодек: 2.0
бітрейт: 128 кб/с

Субтитри:
мова: українська (Написи)
тип: програмні (м'які)
формат: *.

Субтитри:
мова: українська (Повні)
тип: програмні (м'які)
формат: *.
Info
General
Unique ID : 85359318353235123356520624353767094614 (0x40379B5252A9ED47B577276E54A47956)
Complete name : F:\Rainy984\Толока\[Mitsuruki] Given [720p]\[Mitsuruki] Given - 01 [720p].
Format :
Format version : Version 4 / Version 2
File size : 332 MiB
Duration : 22 min 57 s
Overall bit rate : 2 020 kb/s
Encoded date : UTC 2019-07-17 09:32:07
Writing application : v30.1.0 ('Forever And More') 64-bit
Writing library : libebml v1.3.6 + v1.4.9
Attachments : OpenSans-Semibold.ttf

Video
ID : 1
Format : AVC
Format/Info : Advanced Video Codec
Format profile : [email protected]
Format settings : CABAC / 6 Ref Frames
Format settings, CABAC : Yes
Format settings, ReFrames : 6 frames
Codec ID : V_MPEG4/ISO/AVC
Duration : 22 min 55 s
Bit rate : 1 621 kb/s
Width : 1 280 pixels
Height : 720 pixels
Display aspect ratio : 16:9
Frame rate mode : Constant
Frame rate : 23.976 (24000/1001) FPS
Color space : YUV
Chroma subsampling : 4:2:0
Bit depth : 8 bits
Scan type : Progressive
Bits/(Pixel*Frame) : 0.073
Stream size : 266 MiB (80%)
Writing library : core 142
Encoding settings : cabac=1 / ref=6 / deblock=1:1:1 / analyse=0x3:0x113 / me=umh / subme=8 / psy=1 / psy_rd=0.40:0.00 / mixed_ref=1 / me_range=16 / chroma_me=1 / trellis=1 / 8x8dct=1 / cqm=0 / deadzone=21,11 / fast_pskip=1 / chroma_qp_offset=-2 / threads=10 / lookahead_threads=1 / sliced_threads=0 / nr=0 / decimate=1 / interlaced=0 / bluray_compat=0 / constrained_intra=0 / bframes=3 / b_pyramid=2 / b_adapt=2 / b_bias=0 / direct=3 / weightb=1 / open_gop=0 / weightp=2 / keyint=96 / keyint_min=48 / scenecut=40 / intra_refresh=0 / rc_lookahead=48 / rc=crf / mbtree=1 / crf=15.0 / qcomp=0.60 / qpmin=0 / qpmax=69 / qpstep=4 / vbv_maxrate=4000 / vbv_bufsize=6000 / crf_max=0.0 / nal_hrd=none / filler=0 / ip_ratio=1.40 / aq=1:0.60
Default : Yes
Forced : No

Audio #1
ID : 2
Format :
Format/Info : Advanced Audio Codec
Format profile : LC
Codec ID : A_AAC-2
Duration : 22 min 57 s
Bit rate : 265 kb/s
Channel(s) : 2 channels
Channel positions : Front: L R
Sampling rate : 48.0 kHz
Frame rate : 46.875 FPS (1024 SPF)
Compression mode : Lossy
Delay relative to video : -83 ms
Stream size : 44.1 MiB (13%)
Title : Mitsuruki
Language : Ukrainian
Default : Yes
Forced : No

Audio #2
ID : 3
Format :
Format/Info : Advanced Audio Codec
Format profile : LC
Codec ID : A_AAC-2
Duration : 22 min 55 s
Bit rate : 128 kb/s
Channel(s) : 2 channels
Channel positions : Front: L R
Sampling rate : 44.1 kHz
Frame rate : 43.066 FPS (1024 SPF)
Compression mode : Lossy
Delay relative to video : -83 ms
Stream size : 21.0 MiB (6%)
Language : Japanese
Default : No
Forced : No

Text #1
ID : 4
Format :
Codec ID : S_TEXT/
Codec ID/Info : Advanced Sub Station Alpha
Duration : 13 min 0 s
Bit rate : 4 b/s
Count of elements : 3
Compression mode : Lossless
Stream size : 451 Bytes (0%)
Title : Написи (bills_spirit)
Language : Ukrainian
Default : Yes
Forced : No

Text #2
ID : 5
Format :
Codec ID : S_TEXT/
Codec ID/Info : Advanced Sub Station Alpha
Duration : 22 min 17 s
Bit rate : 117 b/s
Count of elements : 265
Compression mode : Lossless
Stream size : 19.1 KiB (0%)
Title : Повні (bills_spirit)
Language : Ukrainian
Default : No
Forced : No
Скріншоти


Джерело: Реліз від Mitsuruki
Переклад: bills_spirit
Озвучення: Rainy984, Risadere, Анімач
Робота зі звуком і координація проектом: Rainy984

Особиста оцінка: 10 - без зайвих вагань рекомендую всім!


Авторський реліз (завантажувати можна без реєстрації)
 Трекер:    Зареєстрований   

Завантажити / скачати аніме українською



відео для новачків



 Зареєстрований:   2019-09-06 21:22
 Розмір:   638 MB 
 Оцінка аніме:   10/10 (Голосів: 3)
   
Mitsuruki 
VIP


З нами з: 27.09.17
Востаннє: 20.09.19
Повідомлень: 501

2019-07-17 12:58  
Додано 1 серію, приємного перегляду!
fanat22012 
Свій


З нами з: 26.06.17
Востаннє: 20.09.19
Повідомлень: 86

2019-07-17 14:05  
Цитата:
Озвучення: Rainy984, Risadere, Анімач

Я звичайно перепрошую за своє невігластво, але це той самий Анімач з Ютубу?)

Mitsuruki 
VIP


З нами з: 27.09.17
Востаннє: 20.09.19
Повідомлень: 501

2019-09-06 21:22  
Додано 2 серію!
Ваш часовий пояс: GMT + 2 Години

Нова тема   Відповісти