Вторгнення / The Intruder (2019) 1080p Eng | Sub Ukr/Eng

Нові коментарі

Нова тема   Відповісти
Автор Повідомлення
Anonymous 







2019-07-16 21:31  
Вторгнення / The Intruder (2019) 1080p Eng | Sub Ukr/Eng

Вторгнення / The Intruder (2019) 1080p Eng | Sub Ukr/Eng
Оригінальний постер:

Вторгнення / The Intruder (2019) 1080p Eng | Sub Ukr/Eng

Жанр: жахи, трилер, драма, детектив
Країна: США



Кінокомпанія: Screen Gems, Hidden Empire Film Group, Primary Wave Entertainment
Режисер: Деон Тейлор / Deon Taylor
Актори: Денніс Квейд, Міган Гуд, Джозеф Сікора, Майкл Ілі, Альвіна Август, Лілі Сепе, Дебс Говард, Лі Шортен, Курт Еванс, Керолін Андерсон та інші

Сюжет:
Чорношкірі молодята купують будинок своєї мрії, який має стати чудовою домівкою для їхньої майбутньої сім'ї. Але не все так просто, схоже білий колишній власник (Денніс Квейд) не бажає його полишати.
Офіційний трейлер:

Рейтинг MPAA: PG-13 - дітям до 13 років перегляд не бажаний
Вікова категорія: 16+

Тривалість: 01:42:02
Якість: 1080p

Відео:
кодек:
розмір кадру: 1920 х 790
бітрейт: 4518 кб/с

Аудіо:
мова: англійська
переклад: оригінал
кодек: 5.1
бітрейт: 384 кб/с

Субтитри # 1: /
мова: українська
тип: програмні (м'які)
формат: *.srt
переклад: офіційний, Всеволод Іващенко

Субтитри # 2:
мова: англійська
тип: програмні (м'які)
формат: *.srt

Збережено оригінальні розділи
Info
Код:

Complete name               : The Intruder (2019) [Eng sub.Ukr,Eng] 1080p [Hurtom].
Format                      :
Format version              : Version 4
File size                   : 3.50 GiB
Duration                    : 1 h 42 min
Overall bit rate            : 4 904 kb/s
Movie name                  : Вторгнення / The Intruder (2019) [Eng sub.Ukr,Eng] 1080p [Hurtom]
Encoded date                : UTC 2019-07-16 19:05:23
Writing application         : v35.0.0 ('All The Love In The World') 64-bit
Writing library             : libebml v1.3.9 + v1.5.2
Cover                       : Yes
Attachments                 : cover.jpg

Video
ID                          : 1
Format                      : AVC
Format/Info                 : Advanced Video Codec
Format profile              : [email protected]
Format settings             : CABAC / 5 Ref Frames
Format settings, CABAC      : Yes
Format settings, Reference  : 5 frames
Codec ID                    : V_MPEG4/ISO/AVC
Duration                    : 1 h 42 min
Bit rate                    : 4 518 kb/s
Width                       : 1 920 pixels
Height                      : 790 pixels
Display aspect ratio        : 2.40:1
Frame rate mode             : Constant
Frame rate                  : 23.976 (24000/1001) FPS
Color space                 : YUV
Chroma subsampling          : 4:2:0
Bit depth                   : 8 bits
Scan type                   : Progressive
Bits/(Pixel*Frame)          : 0.124
Stream size                 : 3.22 GiB (92%)
Title                       : Вторгнення / The Intruder (2019) 1080p [FGT]
Language                    : English
Default                     : Yes
Forced                      : No
Color range                 : Limited
Color primaries             : BT.709
Transfer characteristics    : BT.709
Matrix coefficients         : BT.709

Audio
ID                          : 2
Format                      : AC-3
Format/Info                 : Audio Coding 3
Commercial name             : Dolby Digital
Codec ID                    : A_AC3
Duration                    : 1 h 42 min
Bit rate mode               : Constant
Bit rate                    : 384 kb/s
Channel(s)                  : 6 channels
Channel layout              : L R C LFE Ls Rs
Sampling rate               : 48.0 kHz
Frame rate                  : 31.250 FPS (1536 SPF)
Bit depth                   : 16 bits
Compression mode            : Lossy
Delay relative to video     : -42 ms
Stream size                 : 280 MiB (8%)
Title                       : Original, 5.1 384 Kbps
Language                    : English
Service kind                : Complete Main
Default                     : Yes
Forced                      : No

Text #1
ID                          : 3
Format                      : UTF-8
Codec ID                    : S_TEXT/UTF8
Codec ID/Info               : UTF-8 Plain Text
Duration                    : 1 h 40 min
Bit rate                    : 95 b/s
Count of elements           : 1370
Stream size                 : 70.4 KiB (0%)
Title                       : Ukr Full
Language                    : Ukrainian
Default                     : Yes
Forced                      : Yes

Text #2
ID                          : 4
Format                      : UTF-8
Codec ID                    : S_TEXT/UTF8
Codec ID/Info               : UTF-8 Plain Text
Duration                    : 1 h 35 min
Bit rate                    : 61 b/s
Count of elements           : 1520
Stream size                 : 43.4 KiB (0%)
Title                       : Eng Full
Language                    : English
Default                     : No
Forced                      : No

Menu
00:00:00.000                : en:1
00:05:59.275                : en:2
00:12:51.312                : en:3
00:17:12.239                : en:4
00:25:28.360                : en:5
00:32:56.683                : en:6
00:36:17.592                : en:7
00:41:54.595                : en:8
00:50:14.177                : en:9
00:55:52.640                : en:10
00:58:29.880                : en:11
01:08:55.505                : en:12
01:14:02.562                : en:13
01:18:21.737                : en:14
01:25:18.028                : en:15
01:32:08.063                : en:16




Джерело:

upd. 28.09.2020 незабаром реліз буде оновлено українським озвученням, відеряд буде замінено 1080p --> 720p


 Трекер:    Зареєстрований   

Завантажити / скачати фільм українською



відео для новачків



 Зареєстрований:   2019-07-16 21:31
 Розмір:   3.5 GB 
 Оцінка фільму:   5.2/10 (Голосів: 9)
 ЗАЛИШАЙТЕСЬ ЯКОМОГА ДОВШЕ НА РОЗДАЧІ! ЗАВАНТАЖИВ САМ - ДАЙ ЗАВАНТАЖИТИ ІНШИМ!
   
munipet 
VIP


З нами з: 14.04.11
Востаннє: 29.11.20
Повідомлень: 322

2019-07-16 22:57  
Розквіт расизму в голівуді проти білих !
hetzendorf 
Попереджень: 2
Попереджень: 2 


З нами з: 23.07.15
Востаннє: 30.11.20
Повідомлень: 2938

2019-07-16 23:31  
munipet
Саме так! Попри страусячу позицію та окозамилування ліберастів і толерастів сталося те, про що давно й неодноразово попереджали — чорний расизм остаточно підняв голову й перейшов у наступ.

darklight94 
Поважний учасник


З нами з: 08.07.18
Востаннє: 29.11.20
Повідомлень: 162

2019-07-17 00:26  
А буде AVC?
Anonymous 







2019-07-17 07:40  
darklight94 написано:
А буде AVC?
я не планую - 3,5 Гб доступний розмір, а по мізерній к-ті бажаючих переглянути новинку 2019 року з субтитрами (поки що 0 завантажень) фільм не надто популярний.
Ваш часовий пояс: GMT + 2 Години

Нова тема   Відповісти