Окремо / Untogether (2018) 1080p Eng | Sub Ukr/Eng

Нові коментарі

Нова тема   Відповісти
Автор Повідомлення
Anonymous 







2019-07-16 19:10  
Окремо / Untogether (2018) 1080p Eng | Sub Ukr/Eng

Окремо / Untogether (2018) 1080p Eng | Sub Ukr/Eng
Оригінальний постер:


Жанр: драма
Країна: США



Кінокомпанія: Redwire Pictures, Sterling Road Films, Ambassador Film Group, Casadelic Pictures, Jeff Rice Films, Palantir Group, Paradox Film Group
Режисер: Емма Форрест / Emma Forrest
Актори: Джеймі Дорнан / Jamie Dornan, Лола Кірк / Lola Kirke, Джеміма Кірк / Jemima Kirke, Бен Мендельсон / Ben Mendelsohn, Біллі Крістал / Billy Crystal, Дженніфер Грей / Jennifer Grey, Скотт Каан / Scott Caan, Еліс Ів / Alice Eve, Жоель Віргель / Joel Virgel, Кетрін Зенна / Kathryn Zenna та інші

Сюжет:
Все своє дитинство і юність Андреа подавала великі надії і була справжнім вундеркіндом. Всі були впевнені, що в неї буде велике майбутнє, проте незабаром в житті героїні з'явилися наркотики, які зламали її. Вона усвідомила що губить себе і зав'язала з наркотиками, вирішивши присвятити себе людям і стати письменницею.
Офіційний трейлер:

Рейтинг MPAA: R - особам до 17 років обов'язкова присутність батьків або дорослого опікуна
Вікова категорія: 16+

Тривалість: 01:38:42
Якість: 1080p
Відео:
кодек:
розмір кадру: 1920 х 796
бітрейт: 4591 кб/с

Аудіо:
мова: англійська
переклад: оригінал
кодек: 5.1
бітрейт: 384 кб/с

Субтитри # 1:
мова: українська
тип: програмні (м'які)
формат: *.srt
переклад: Володимир Фатун

Субтитри # 2:
мова: англійська
тип: програмні (м'які)
формат: *.srt

Збережено оригінальні розділи
Info
Код:

Complete name               : Untogether (2018) [Eng sub.Ukr,Eng] 1080p [Hurtom].
Format                      :
Format version              : Version 4
File size                   : 3.43 GiB
Duration                    : 1 h 38 min
Overall bit rate            : 4 978 kb/s
Movie name                  : Окремо / Untogether (2018) [Eng sub.Ukr,Eng] 1080p [Hurtom]
Encoded date                : UTC 2019-07-16 16:40:12
Writing application         : v35.0.0 ('All The Love In The World') 64-bit
Writing library             : libebml v1.3.9 + v1.5.2
Cover                       : Yes
Attachments                 : cover.jpg

Video
ID                          : 1
Format                      : AVC
Format/Info                 : Advanced Video Codec
Format profile              : [email protected]
Format settings             : CABAC / 5 Ref Frames
Format settings, CABAC      : Yes
Format settings, Reference  : 5 frames
Codec ID                    : V_MPEG4/ISO/AVC
Duration                    : 1 h 38 min
Bit rate                    : 4 591 kb/s
Width                       : 1 920 pixels
Height                      : 796 pixels
Display aspect ratio        : 2.40:1
Frame rate mode             : Constant
Frame rate                  : 23.976 (23976/1000) FPS
Color space                 : YUV
Chroma subsampling          : 4:2:0
Bit depth                   : 8 bits
Scan type                   : Progressive
Bits/(Pixel*Frame)          : 0.125
Stream size                 : 3.17 GiB (92%)
Title                       : Окремо / Untogether (2018) 1080p [BlueBird]
Language                    : English
Default                     : Yes
Forced                      : No
Color range                 : Limited
Color primaries             : BT.709
Transfer characteristics    : BT.709
Matrix coefficients         : BT.709

Audio
ID                          : 2
Format                      : AC-3
Format/Info                 : Audio Coding 3
Commercial name             : Dolby Digital
Codec ID                    : A_AC3
Duration                    : 1 h 38 min
Bit rate mode               : Constant
Bit rate                    : 384 kb/s
Channel(s)                  : 6 channels
Channel layout              : L R C LFE Ls Rs
Sampling rate               : 48.0 kHz
Frame rate                  : 31.250 FPS (1536 SPF)
Bit depth                   : 16 bits
Compression mode            : Lossy
Stream size                 : 271 MiB (8%)
Title                       : Original, 5.1 384 kbps
Language                    : English
Service kind                : Complete Main
Default                     : Yes
Forced                      : No

Text #1
ID                          : 3
Format                      : UTF-8
Codec ID                    : S_TEXT/UTF8
Codec ID/Info               : UTF-8 Plain Text
Duration                    : 1 h 38 min
Bit rate                    : 79 b/s
Count of elements           : 1166
Stream size                 : 57.2 KiB (0%)
Title                       : Ukr Full [iTunes]
Language                    : Ukrainian
Default                     : Yes
Forced                      : Yes

Text #2
ID                          : 4
Format                      : UTF-8
Codec ID                    : S_TEXT/UTF8
Codec ID/Info               : UTF-8 Plain Text
Duration                    : 1 h 31 min
Bit rate                    : 57 b/s
Count of elements           : 1161
Stream size                 : 38.5 KiB (0%)
Title                       : Eng Full
Language                    : English
Default                     : No
Forced                      : No

Menu
00:00:00.000                : en:1
00:05:37.128                : en:2
00:11:10.711                : en:3
00:19:06.895                : en:4
00:25:26.441                : en:5
00:29:27.181                : en:6
00:36:39.780                : en:7
00:41:08.340                : en:8
00:49:22.292                : en:9
00:54:10.663                : en:10
00:57:13.012                : en:11
01:05:50.571                : en:12
01:12:12.786                : en:13
01:18:57.690                : en:14
01:23:16.490                : en:15
01:31:35.405                : en:16




Джерело: &


 Трекер:    Зареєстрований   

Завантажити / скачати фільм українською



відео для новачків



 Зареєстрований:   2019-07-16 19:10
 Розмір:   3.43 GB 
 Оцінка фільму:   9.5/10 (Голосів: 2)
   
Інші релізи
   Окремо / Untogether (2018) AVC Ukr/Eng | Sub Ukr/Eng staf777  8 / 0   1.63 GB   2020-11-07 18:08 
Ваш часовий пояс: GMT + 2 Години

Нова тема   Відповісти