Стежки / Tracks (2013) AVC Ukr/Eng | Sub Eng

Нові коментарі

Нова тема   Відповісти
Автор Повідомлення
Anonymous 







2019-07-16 11:07  
Стежки / Tracks (2013) AVC Ukr/Eng | Sub Eng

Оригінальний постер:



Жанр: драма, пригодницький, біографічний
Країна: Австралія



Кінокомпанія: See-Saw Films, HanWay Films, Screen Australia
Режисер: Джон Куран
Актори: Міа Васіковська, Адам Драйвер, Роллей Мінтума та інші

Сюжет:
У 1977 році Робін Девідсон вирушила з центру австралійського континенту (місто Аліс-Спрінгс) у подорож довжиною в 2700 км, через малонаселені райони й пустелі Австралії до берегів Індійського океану, у супроводі собаки Дігіті й чотирьох верблюдів. По дорозі її періодично відвідує фотограф «National Geographic» Рік Смолан, який робив про неї репортажі.
Офіційний трейлер:

Рейтинг MPAA: PG-13 - дітям до 13 років перегляд не бажаний
Вікова категорія: 12+

Тривалість: 01:52:32
Якість: AVC

Відео:
кодек:
розмір кадру: 944x392
бітрейт: 1410 кб/с

Аудіо #1:
мова: українська
озвучення: двоголосе закадрове
кодек: 2.0
бітрейт: 192 кб/с

Аудіо #2:
мова: англійська
переклад: оригінал
кодек: 5.1
бітрейт: 256 кб/с

Субтитри # 1-2:
мова: англійська (повні, SDH)
тип: програмні (м'які)
формат: *.srt
Info
Код:

Complete name               : Tracks (2013) [Ukr,Eng sub.Eng] AVC [Hurtom].
Format                      :
Format version              : Version 4
File size                   : 1.46 GiB
Duration                    : 1 h 52 min
Overall bit rate            : 1 860 kb/s
Movie name                  : Стежки / Tracks (2013) [Ukr,Eng sub.Eng] AVC [Hurtom]
Encoded date                : UTC 2019-07-16 11:11:29
Writing application         : v35.0.0 ('All The Love In The World') 64-bit
Writing library             : libebml v1.3.9 + v1.5.2
Cover                       : Yes
Attachments                 : cover.jpg

Video
ID                          : 1
Format                      : AVC
Format/Info                 : Advanced Video Codec
Format profile              : [email protected]
Format settings             : CABAC / 12 Ref Frames
Format settings, CABAC      : Yes
Format settings, Reference  : 12 frames
Codec ID                    : V_MPEG4/ISO/AVC
Duration                    : 1 h 52 min
Bit rate                    : 1 410 kb/s
Width                       : 944 pixels
Height                      : 392 pixels
Display aspect ratio        : 2.40:1
Frame rate mode             : Constant
Frame rate                  : 24.000 FPS
Color space                 : YUV
Chroma subsampling          : 4:2:0
Bit depth                   : 8 bits
Scan type                   : Progressive
Bits/(Pixel*Frame)          : 0.159
Stream size                 : 1.11 GiB (76%)
Title                       : Стежки / Tracks (2013) AVC [potroks]
Writing library             : core 146 r2538 121396c
Encoding settings           : cabac=1 / ref=12 / deblock=1:-2:-2 / analyse=0x3:0x113 / me=umh / subme=11 / psy=1 / psy_rd=1.02:0.05 / mixed_ref=1 / me_range=48 / chroma_me=1 / trellis=2 / 8x8dct=1 / cqm=0 / deadzone=21,11 / fast_pskip=0 / chroma_qp_offset=-3 / threads=9 / lookahead_threads=2 / sliced_threads=0 / nr=0 / decimate=0 / interlaced=0 / bluray_compat=0 / constrained_intra=0 / bframes=13 / b_pyramid=2 / b_adapt=2 / b_bias=0 / direct=3 / weightb=1 / open_gop=0 / weightp=2 / keyint=240 / keyint_min=23 / scenecut=40 / intra_refresh=0 / rc_lookahead=60 / rc=2pass / mbtree=0 / bitrate=1410 / ratetol=1.0 / qcomp=0.70 / qpmin=0 / qpmax=69 / qpstep=4 / cplxblur=20.0 / qblur=0.5 / vbv_maxrate=14000 / vbv_bufsize=14000 / nal_hrd=none / filler=0 / ip_ratio=1.40 / pb_ratio=1.30 / aq=1:0.80
Language                    : English
Default                     : Yes
Forced                      : No

Audio #1
ID                          : 2
Format                      : AC-3
Format/Info                 : Audio Coding 3
Commercial name             : Dolby Digital
Codec ID                    : A_AC3
Duration                    : 1 h 52 min
Bit rate mode               : Constant
Bit rate                    : 192 kb/s
Channel(s)                  : 2 channels
Channel layout              : L R
Sampling rate               : 48.0 kHz
Frame rate                  : 31.250 FPS (1536 SPF)
Bit depth                   : 16 bits
Compression mode            : Lossy
Stream size                 : 155 MiB (10%)
Title                       : DVO [Kyiv], 2.0 192 Kbps
Language                    : Ukrainian
Service kind                : Complete Main
Default                     : Yes
Forced                      : No

Audio #2
ID                          : 3
Format                      : LC
Format/Info                 : Advanced Audio Codec Low Complexity
Codec ID                    : A_AAC-2
Duration                    : 1 h 52 min
Bit rate                    : 256 kb/s
Channel(s)                  : 6 channels
Channel layout              : L R C Cb Lb Rb
Sampling rate               : 48.0 kHz
Frame rate                  : 46.875 FPS (1024 SPF)
Compression mode            : Lossy
Stream size                 : 206 MiB (14%)
Title                       : Original, 5.1 256 Kbps
Language                    : English
Default                     : No
Forced                      : No

Text #1
ID                          : 4
Format                      : UTF-8
Codec ID                    : S_TEXT/UTF8
Codec ID/Info               : UTF-8 Plain Text
Duration                    : 1 h 44 min
Bit rate                    : 29 b/s
Count of elements           : 830
Stream size                 : 22.9 KiB (0%)
Title                       : Eng Full
Language                    : English
Default                     : No
Forced                      : No

Text #2
ID                          : 5
Format                      : UTF-8
Codec ID                    : S_TEXT/UTF8
Codec ID/Info               : UTF-8 Plain Text
Duration                    : 1 h 44 min
Bit rate                    : 36 b/s
Count of elements           : 1048
Stream size                 : 28.0 KiB (0%)
Title                       : Eng SDH
Language                    : English
Default                     : No
Forced                      : No

Menu
00:00:00.000                : en:(01)00:00:00:000
00:14:36.291                : en:(02)00:14:36:291
00:28:36.500                : en:(03)00:28:36:500
00:45:27.375                : en:(04)00:45:27:375
00:59:24.541                : en:(05)00:59:24:541
01:13:41.500                : en:(06)01:13:41:500
01:29:34.250                : en:(07)01:29:34:250
01:46:05.208                : en:(08)01:46:05:208
01:52:32.625                : en:(09)01:52:32:625


Джерело: &
За українську доріжку подяка п.krigg070, за українізацію постера подяка п.Ham_R.


 Трекер:    Зареєстрований   

Завантажити / скачати фільм українською



відео для новачків



 Зареєстрований:   2019-07-16 14:29
 Розмір:   1.46 GB 
 Оцінка фільму:   9.3/10 (Голосів: 21)
 ЗАЛИШАЙТЕСЬ ЯКОМОГА ДОВШЕ НА РОЗДАЧІ! ЗАВАНТАЖИВ САМ - ДАЙ ЗАВАНТАЖИТИ ІНШИМ!
   
Інші релізи
   Стежки / Tracks (2013) 1080p H.265 Ukr/Eng | Sub Eng -Star-Lord-  5 / 0   4.97 GB   2019-07-17 19:30 
   Стежки / Tracks (2013) 1080p Ukr/Eng | Sub Eng staf777  6 / 0   10.77 GB   2019-07-17 08:35 
   Стежки / Tracks (2013) igor911  13 / 0   1.62 GB   2019-07-16 13:56 
   Стежки / Tracks (2013) 720p Ukr/Eng | Sub Eng krigg070  11 / 0   5.94 GB   2019-07-15 23:02 
Ваш часовий пояс: GMT + 2 Години

Нова тема   Відповісти