Стежки / Tracks (2013)

Нові коментарі

Нова тема   Відповісти
Автор Повідомлення
Anonymous 







2019-07-16 08:12  
Стежки / Tracks (2013)

Оригінальний постер:



Жанр: драма, пригодницький, біографічний
Країна: Австралія



Кінокомпанія: See-Saw Films, HanWay Films, Screen Australia
Режисер: Джон Куран
Актори: Міа Васіковська, Адам Драйвер, Роллей Мінтума та інші

Сюжет:
У 1977 році Робін Девідсон вирушила з центру австралійського континенту (місто Аліс-Спрінгс) у подорож довжиною в 2700 км, через малонаселені райони й пустелі Австралії до берегів Індійського океану, у супроводі собаки Дігіті й чотирьох верблюдів. По дорозі її періодично відвідує фотограф «National Geographic» Рік Смолан, який робив про неї репортажі.
Офіційний трейлер:

Рейтинг MPAA: PG-13 - дітям до 13 років перегляд не бажаний
Вікова категорія: 12+

Тривалість: 01:52:32
Якість:

Відео:
кодек:
розмір кадру: 720х304
бітрейт: 1864 кб/с

Аудіо:
мова: українська
озвучення: двоголосе закадрове
кодек: 2.0
бітрейт: 192 кб/с
Info
Код:
General
Complete name               : Tracks (2013) [Ukr] [Hurtom].avi
Format                      : AVI
Format/Info                 : Audio Video Interleave
File size                   : 1.62 GiB
Duration                    : 1 h 52 min
Overall bit rate            : 2 065 kb/s
Movie name                  : Стежки / Tracks (2013) [Ukr] [Hurtom]

Video
ID                          : 0
Format                      : MPEG-4 Visual
Format profile              : Advanced [email protected]
Format settings             : BVOP1 / Custom Matrix
Format settings, BVOP       : 1
Format settings, QPel       : No
Format settings, GMC        : No warppoints
Format settings, Matrix     : Custom
Codec ID                    :
Codec ID/Hint               :
Duration                    : 1 h 52 min
Bit rate                    : 1 864 kb/s
Width                       : 720 pixels
Height                      : 304 pixels
Display aspect ratio        : 2.35:1
Frame rate                  : 24.000 FPS
Color space                 : YUV
Chroma subsampling          : 4:2:0
Bit depth                   : 8 bits
Scan type                   : Progressive
Compression mode            : Lossy
Bits/(Pixel*Frame)          : 0.355
Stream size                 : 1.47 GiB (90%)
Writing library             : 65

Audio
ID                          : 1
Format                      : AC-3
Format/Info                 : Audio Coding 3
Commercial name             : Dolby Digital
Codec ID                    : 2000
Duration                    : 1 h 52 min
Bit rate mode               : Constant
Bit rate                    : 192 kb/s
Channel(s)                  : 2 channels
Channel layout              : L R
Sampling rate               : 48.0 kHz
Frame rate                  : 31.250 FPS (1536 SPF)
Bit depth                   : 16 bits
Compression mode            : Lossy
Stream size                 : 155 MiB (9%)
Alignment                   : Split across interleaves
Interleave, duration        : 42  ms (1.00 video frame)
Interleave, preload duratio : 500  ms
Title                       : UKR DVO [Kyiv]
Service kind                : Complete Main



Джерело: &
Подяка за українську доріжку п.krigg070, подяка за постер п.Ham_R.


 Трекер:    Зареєстрований   

Завантажити / скачати фільм українською



відео для новачків



 Зареєстрований:   2019-07-16 13:56
 Розмір:   1.62 GB 
 Оцінка фільму:   9.8/10 (Голосів: 11)
 ЗАЛИШАЙТЕСЬ ЯКОМОГА ДОВШЕ НА РОЗДАЧІ! ЗАВАНТАЖИВ САМ - ДАЙ ЗАВАНТАЖИТИ ІНШИМ!
   
Інші релізи
   Стежки / Tracks (2013) 1080p H.265 Ukr/Eng | Sub Eng -Star-Lord-  2 / 1   4.97 GB   2019-07-17 19:30 
   Стежки / Tracks (2013) 1080p Ukr/Eng | Sub Eng staf777  3 / 0   10.77 GB   2019-07-17 08:35 
   Стежки / Tracks (2013) AVC Ukr/Eng | Sub Eng igor911  5 / 0   1.46 GB   2019-07-16 14:29 
   Стежки / Tracks (2013) 720p Ukr/Eng | Sub Eng krigg070  5 / 0   5.94 GB   2019-07-15 23:02 
merlinker 
Попереджень: 1
Попереджень: 1 


З нами з: 03.04.11
Востаннє: 22.10.19
Повідомлень: 73

2019-10-04 22:30  
Дивитися один раз. Якщо більше нічого.
Ваш часовий пояс: GMT + 2 Години

Нова тема   Відповісти