Перехрестя Балу (2017) 1080p

Нові коментарі

Нова тема   Відповісти
Автор Повідомлення
sergiyko.5 
VIP


З нами з: 25.02.16
Востаннє: 23.10.20
Повідомлень: 3611

2019-07-15 17:20  
Перехрестя Балу (2017) 1080p

Перехрестя Балу (2017) 1080p

Жанр: документальний, про війну
Країна: Україна
Режисер: Євген Коваленко

Сюжет:
Стрічка присвячена пам’яті загиблих воїнів вже сучасної війни – капітана Ільгара Багірова з позивним "Балу" та командира прикордонників на блокпосту – В’ячеслава Семенова.
Осередок оборони названий позивним свого першого командира, капітана Ільгара (Ігоря) Багірова «Балу», який, потрапивши в оточення під час розвідки в тилу супротивника, щоб не здатися в полон, підірвав гранатами себе разом з ворогом.17 лютого 2015 року на «Балу» загинув старший лейтенант прикордонного відомства - В’ячеслав Семенов. Офіцер разом з побратимами два тижні відбивали атаки бойовиків. Посмертно йому присвоїли звання Героя України.
Останні дні ключового блокпоста на Дебальцівському напрямку у кінофільмі "Перехрестя Балу".


Тривалість: 00:55:08
Якість:

Відео: кодек: розмір кадру: 1920 х 1080 бітрейт: 2000 кб/с
Аудіо: мова: українська переклад: оригінал кодек: 2.0 бітрейт: 128 кб/с
Про файл:
General
Complete name : F:\Torrents2\FILMS\Перехрестя Балу.2017.1080p..mp4
Format : MPEG-4
Format profile : Base Media
Codec ID : isom (isom/iso2/avc1/mp41)
File size : 846 MiB
Duration : 55 min 8 s
Overall bit rate : 2 147 kb/s
Writing application : Lavf58.12.100

Video
ID : 1
Format : AVC
Format/Info : Advanced Video Codec
Format profile : [email protected]
Format settings : CABAC / 3 Ref Frames
Format settings, CABAC : Yes
Format settings, Reference : 3 frames
Codec ID : avc1
Codec ID/Info : Advanced Video Coding
Duration : 55 min 8 s
Bit rate : 2 012 kb/s
Width : 1 920 pixels
Height : 1 080 pixels
Display aspect ratio : 16:9
Frame rate mode : Constant
Frame rate : 25.000 FPS
Color space : YUV
Chroma subsampling : 4:2:0
Bit depth : 8 bits
Scan type : Progressive
Bits/(Pixel*Frame) : 0.039
Stream size : 794 MiB (94%)
Color range : Limited
Color primaries : BT.709
Transfer characteristics : BT.709
Matrix coefficients : BT.709
Codec configuration box : avcC

Audio
ID : 2
Format : LC
Format/Info : Advanced Audio Codec Low Complexity
Codec ID : mp4a-40-2
Duration : 55 min 8 s
Bit rate mode : Constant
Bit rate : 128 kb/s
Channel(s) : 2 channels
Channel layout : L R
Sampling rate : 44.1 kHz
Frame rate : 43.066 FPS (1024 SPF)
Compression mode : Lossy
Stream size : 50.5 MiB (6%)
Language : English
Default : Yes
Alternate group : 1
Скріншоти:


Запис: sergiyko


Золотий реліз (завантажене не впливає на рейтинг)
 Трекер:    Зареєстрований   

Завантажити / скачати фільм українською



відео для новачків



 Зареєстрований:   2019-07-15 17:34
 Розмір:   846 MB 
 Оцінка фільму:   9.9/10 (Голосів: 26)
   
Ваш часовий пояс: GMT + 2 Години

Нова тема   Відповісти