Аліса. Диологія / Alice. Dilogy (2010, 2016) 1080p H.265 Ukr/Eng | Sub Ukr/Eng

Нові коментарі

Нова тема   Відповісти
Автор Повідомлення
Anonymous 







2019-07-15 08:53  
Аліса. Диологія / Alice. Dilogy (2010, 2016) 1080p H.265 Ukr/Eng | Sub Ukr/Eng

Аліса. Диологія / Alice. Dilogy (2010, 2016) 1080p H.265 Ukr/Eng | Sub Ukr/Eng

1. Аліса в країні чудес / Alice in Wonderland (2010) 1080p H.265 Ukr/Eng | Sub Ukr/Eng
Аліса в країні чудес / Alice in Wonderland (2010) 1080p H.265 Ukr/Eng | Sub Ukr/Eng

Аліса. Диологія / Alice. Dilogy (2010, 2016) 1080p H.265 Ukr/Eng | Sub Ukr/Eng


Жанр: фентезі, пригодницький
Країна: США
Кінокомпанія: Walt Disney Pictures
Режисер: Тім Бертон
Актори: Міа Васиковска,Джонні Деп, Хелена Бонем Картер, Енн Хетеуей,Кріспін Гловер, Метт Лукас, Стівен Фрай, Майкл Шин

Сюжет:
Життя 19-річної Аліси Кінгслі робить неочікуваний вихиляс. На вікторіанській вечірці, влаштованій на її честь, Алісі робить освідчення Хеміш, багатий, але дурнуватий син лорда и леді Ескот. Не даючи відповіді, дівчина втікає й іде за кроликом, що помітила на галявинці. Кролик як кролик, от лишень від одягнений у камзол й увесь час поглядає на кишеньковий годинник.Там її чекає цілий парад колоритних персонажів: хвацькувата Соня, божевільний Капелюшник, глуздливий Чеширський Кіт, накурена кальяном гусінь Абесалом, моторошнувата Біла Королева та її злісна сестра, Королева Червів, сварлива й дратівлива правителька Підземної країни.

Тривалість: 01:48:34
Якість:
Відео:
кодек: H.265 (HEVC)
розмір кадру: 1920 x 1080
бітрейт: 7 588 кб/с
бітова глибина: 10 біт
Увага! Перед завантаженням переконайтесь, що ваш пристрій відтворення (та/або ПЗ) підтримує H.265 (HEVC)

Аудіо # 1:
мова: українська
переклад: професійний дубльований
кодек: AC-3 5.1
бітрейт: 640 кб/с

Аудіо # 2:
мова: англійська
переклад: оригінал
кодек: -ES 5.1
бітрейт: 1510 кб/с

Субтитри # 1:
мова: українська (Full),
тип: програмні (м'які)
формат: *.srt

Субтитри # 2:
мова: англійська (Full),
тип: програмні (м'які)
формат: *.srt

Субтитри # 3:
мова: англійська (SDH),
тип: програмні (м'які)
формат: *.srt


Info
Код:
General
Unique ID                                : 256427432239194275500223690588509525775 (0xC0EA20851D88B7C30777A1C362E5570F)
Complete name                            : 1. Alice In Wonderland (2010) 1080p H.265 [UKR_ENG] [Hurtom].
Format                                   :
Format version                           : Version 4 / Version 2
File size                                : 7.39 GiB
Duration                                 : 1 h 48 min
Overall bit rate                         : 9 741 kb/s
Movie name                               : Аліса в країні чудес / Alice in Wonderland (2010)
Encoded date                             : UTC 2019-07-15 02:22:41
Writing application                      : v20.0.0 ('I Am The Sun') 64-bit
Writing library                          : libebml v1.3.5 + v1.4.8
Cover                                    : Yes
Attachments                              : Cover.jpg

Video
ID                                       : 1
Format                                   : HEVC
Format/Info                              : High Efficiency Video Coding
Format profile                           : Main [email protected]@High
Codec ID                                 : V_MPEGH/ISO/HEVC
Duration                                 : 1 h 48 min
Bit rate                                 : 7 588 kb/s
Width                                    : 1 920 pixels
Height                                   : 1 080 pixels
Display aspect ratio                     : 16:9
Frame rate mode                          : Constant
Frame rate                               : 23.976 (23976/1000) FPS
Original frame rate                      : 23.976 (24000/1001) FPS
Color space                              : YUV
Chroma subsampling                       : 4:2:0
Bit depth                                : 10 bits
Bits/(Pixel*Frame)                       : 0.153
Stream size                              : 5.76 GiB (78%)
Title                                    : Аліса в країні чудес / Alice in Wonderland (2010)
Writing library                          : x265 3.0_Au+4-dcbec33bfb0f:[Windows][MSVC 1916][64 bit] 10bit
Encoding settings                        : cpuid=1111039 / frame-threads=3 / numa-pools=12 / wpp / no-pmode / no-pme / no-psnr / no-ssim / log-level=2 / input-csp=1 / input-res=1920x1080 / interlace=0 / total-frames=147531 / level-idc=41 / high-tier=1 / uhd-bd=0 / ref=5 / no-allow-non-conformance / no-repeat-headers / annexb / no-aud / no-hrd / info / hash=0 / no-temporal-layers / open-gop / min-keyint=23 / keyint=240 / gop-lookahead=0 / bframes=16 / b-adapt=2 / b-pyramid / bframe-bias=0 / rc-lookahead=60 / lookahead-slices=4 / scenecut=40 / radl=0 / no-splice / no-intra-refresh / ctu=32 / min-cu-size=8 / rect / amp / max-tu-size=32 / tu-inter-depth=4 / tu-intra-depth=4 / limit-tu=1 / rdoq-level=2 / dynamic-rd=0.00 / no-ssim-rd / signhide / no-tskip / nr-intra=0 / nr-inter=0 / no-constrained-intra / no-strong-intra-smoothing / max-merge=4 / limit-refs=2 / limit-modes / me=3 / subme=7 / merange=57 / temporal-mvp / weightp / weightb / no-analyze-src-pics / deblock=-3:-3 / no-sao / no-sao-non-deblock / rd=6 / no-early-skip / no-rskip / no-fast-intra / no-tskip-fast / no-cu-lossless / no-b-intra / no-splitrd-skip / rdpenalty=0 / psy-rd=2.00 / psy-rdoq=1.00 / no-rd-refine / no-lossless / cbqpoffs=0 / crqpoffs=0 / rc=crf / crf=21.0 / qcomp=0.60 / qpstep=4 / stats-write=0 / stats-read=0 / vbv-maxrate=50000 / vbv-bufsize=50000 / vbv-init=0.9 / crf-max=0.0 / crf-min=0.0 / ipratio=1.40 / pbratio=1.30 / aq-mode=1 / aq-strength=1.00 / no-cutree / zone-count=0 / no-strict-cbr / qg-size=32 / no-rc-grain / qpmax=69 / qpmin=0 / no-const-vbv / sar=1 / overscan=0 / videoformat=5 / range=0 / colorprim=2 / transfer=2 / colormatrix=2 / chromaloc=0 / display-window=0 / max-cll=0,0 / min-luma=0 / max-luma=1023 / log2-max-poc-lsb=8 / vui-timing-info / vui-hrd-info / slices=1 / no-opt-qp-pps / no-opt-ref-list-length-pps / no-multi-pass-opt-rps / scenecut-bias=0.05 / no-opt-cu-delta-qp / no-aq-motion / no-hdr / no-hdr-opt / no-dhdr10-opt / no-idr-recovery-sei / analysis-reuse-level=5 / scale-factor=0 / refine-intra=0 / refine-inter=0 / refine-mv=0 / refine-ctu-distortion=0 / no-limit-sao / ctu-info=0 / no-lowpass-dct / refine-analysis-type=0 / copy-pic=1 / max-ausize-factor=1.0 / no-dynamic-refine / no-single-sei / no-hevc-aq / qp-adaptation-range=1.00
Default                                  : Yes
Forced                                   : No

Audio #1
ID                                       : 2
Format                                   : AC-3
Format/Info                              : Audio Coding 3
Codec ID                                 : A_AC3
Duration                                 : 1 h 48 min
Bit rate mode                            : Constant
Bit rate                                 : 640 kb/s
Channel(s)                               : 6 channels
Channel positions                        : Front: L C R, Side: L R, LFE
Sampling rate                            : 48.0 kHz
Frame rate                               : 31.250 FPS (1536 SPF)
Bit depth                                : 16 bits
Compression mode                         : Lossy
Stream size                              : 497 MiB (7%)
Title                                    : ПД - 5.1 @ 640 kbps - Blu-Ray
Language                                 : Ukrainian
Service kind                             : Complete Main
Default                                  : Yes
Forced                                   : Yes

Audio #2
ID                                       : 3
Format                                   :
Format/Info                              : Digital Theater Systems
Format profile                           : ES Matrix / Core
Codec ID                                 : A_DTS
Duration                                 : 1 h 48 min
Bit rate mode                            : Constant
Bit rate                                 : 1 509 kb/s
Channel(s)                               : 7 channels / 6 channels
Channel positions                        : Front: L C R, Side: L R, Back: C, LFE / Front: L C R, Side: L R, LFE
Sampling rate                            : 48.0 kHz
Frame rate                               : 93.750 FPS (512 SPF)
Bit depth                                : 24 bits
Compression mode                         : Lossy
Stream size                              : 1.14 GiB (15%)
Title                                    : Original - 5.1 @ 1536 kbps
Language                                 : English
Default                                  : No
Forced                                   : No

Text #1
ID                                       : 4
Format                                   : UTF-8
Codec ID                                 : S_TEXT/UTF8
Codec ID/Info                            : UTF-8 Plain Text
Duration                                 : 1 h 40 min
Bit rate                                 : 68 b/s
Count of elements                        : 911
Stream size                              : 50.4 KiB (0%)
Title                                    : Full
Language                                 : Ukrainian
Default                                  : Yes
Forced                                   : No

Text #2
ID                                       : 5
Format                                   : UTF-8
Codec ID                                 : S_TEXT/UTF8
Codec ID/Info                            : UTF-8 Plain Text
Duration                                 : 1 h 46 min
Bit rate                                 : 45 b/s
Count of elements                        : 1133
Stream size                              : 35.0 KiB (0%)
Title                                    : Full
Language                                 : English
Default                                  : No
Forced                                   : No

Text #3
ID                                       : 6
Format                                   : UTF-8
Codec ID                                 : S_TEXT/UTF8
Codec ID/Info                            : UTF-8 Plain Text
Duration                                 : 1 h 46 min
Bit rate                                 : 44 b/s
Count of elements                        : 1127
Stream size                              : 34.6 KiB (0%)
Title                                    : SDH
Language                                 : English
Default                                  : No
Forced                                   : No

Menu
00:00:00.000                             : :1. Dreamers
00:04:24.890                             : :2. Miss Kingsleigh Is Distracted
00:10:36.886                             : :3. Down the Rabbit Hole
00:18:13.509                             : :4. The Wrong Alice
00:24:44.316                             : :5. The Red Queen
00:28:41.345                             : :6. Cheshire, The Hare and the Hatter
00:36:51.126                             : :7. "I Make The Path"
00:46:15.731                             : :8. Um from Umbradge
00:52:44.787                             : :9. Freeing the Vorpal Sword
01:04:05.050                             : :10. Escape to Marmoreal
01:10:02.198                             : :11. Mutiny
01:15:36.490                             : :12. The White Queen's Champion
01:23:39.264                             : :13. Frabjous Day
01:34:12.689                             : :14. Returning Home
01:36:58.354                             : :15. Alice's Decision
01:40:12.131                             : :16. End Credits
Світлини



2. Аліса в Задзеркаллі / Alice Through the Looking Glass (2016) 1080p H.265 Ukr/Eng | Sub Eng
Аліса в Задзеркаллі / Alice Through the Looking Glass (2016) 1080p H.265 Ukr/Eng | Sub Eng

Аліса. Диологія / Alice. Dilogy (2010, 2016) 1080p H.265 Ukr/Eng | Sub Ukr/Eng


Жанр: фентезі, пригодницький, сімейний
Країна: США, Велика Британія
Кінокомпанія: Walt Disney Pictures, Roth Films, Team Todd, Tim Burton Productions, Legend3D
Режисер: Джеймс Бобін / James Bobin
Актори: Джонні Депп / Johnny Depp, Міа Васиковська / Mia Wasikowska, Ен Гетевей / Anne Hathaway, Хелена Бонем Картер / Helena Bonham Carter, Алан Рікман / Alan Rickman, Річард Армітедж / Richard Armitage, Саша Барон Коен / Sacha Baron Cohen та інші

Сюжет:
Та сама Аліса, яка стала успіхом 2010-го, повертається! Творці популярного сучасного фентезі запрошують у дивовижну пригоду, зняту за мотивами бестселера «Аліса в Задзеркаллі». Зробивши крок у Дзеркало, Аліса потрапляє у нову невідому реальність... Сон, вигадка, ілюзія, чи справжнісіньке божевілля?! Фантастичний калейдоскоп яскравих героїв, блискучий зірковий склад, тонкий гумор і графіка нового покоління — ви неодмінно повірите всьому, що побачите.


Тривалість: 01:52:57
Якість:
Відео:
кодек: H.265 (HEVC)
розмір кадру: 1920 x 1036
бітрейт: 9 269 кб/с
бітова глибина: 10 біт
Увага! Перед завантаженням переконайтесь, що ваш пристрій відтворення (та/або ПЗ) підтримує H.265 (HEVC)

Аудіо # 1:
мова: українська
переклад: професійний дубльований
кодек: 5.1
бітрейт: 1510 кб/с

Аудіо # 2:
мова: англійська
переклад: оригінал
кодек: AC-3 5.1
бітрейт: 640 кб/с

Субтитри # 1:
мова: українська (Forced),
тип: програмні (м'які)
формат: *.srt

Субтитри # 2:
мова: англійська (Forced),
тип: програмні (м'які)
формат: *.srt

Субтитри # 3:
мова: англійська (Full),
тип: програмні (м'які)
формат: *.srt


Info
Код:
General
Unique ID                                : 243163899278286288466866482122083340669 (0xB6EFA9DB3A5393842FEF1351E909117D)
Complete name                            : 2. Alice Through the Looking Glass (2016) 1080p H.265 [UKR_ENG] [Hurtom].
Format                                   :
Format version                           : Version 4 / Version 2
File size                                : 9.01 GiB
Duration                                 : 1 h 52 min
Overall bit rate                         : 11.4 Mb/s
Movie name                               : Аліса в Задзеркаллі / Alice Through the Looking Glass (2016)
Encoded date                             : UTC 2019-07-15 02:25:57
Writing application                      : v20.0.0 ('I Am The Sun') 64-bit
Writing library                          : libebml v1.3.5 + v1.4.8
Cover                                    : Yes
Attachments                              : Cover.jpg

Video
ID                                       : 1
Format                                   : HEVC
Format/Info                              : High Efficiency Video Coding
Format profile                           : Main [email protected]@High
Codec ID                                 : V_MPEGH/ISO/HEVC
Duration                                 : 1 h 52 min
Bit rate                                 : 9 269 kb/s
Width                                    : 1 920 pixels
Height                                   : 1 036 pixels
Display aspect ratio                     : 1.85:1
Frame rate mode                          : Constant
Frame rate                               : 23.976 (23976/1000) FPS
Original frame rate                      : 23.976 (24000/1001) FPS
Color space                              : YUV
Chroma subsampling                       : 4:2:0
Bit depth                                : 10 bits
Bits/(Pixel*Frame)                       : 0.194
Stream size                              : 7.31 GiB (81%)
Title                                    : Аліса в Задзеркаллі / Alice Through the Looking Glass (2016)
Writing library                          : x265 3.0_Au+4-dcbec33bfb0f:[Windows][MSVC 1916][64 bit] 10bit
Encoding settings                        : cpuid=1111039 / frame-threads=3 / numa-pools=12 / wpp / no-pmode / no-pme / no-psnr / no-ssim / log-level=2 / input-csp=1 / input-res=1920x1036 / interlace=0 / total-frames=151786 / level-idc=41 / high-tier=1 / uhd-bd=0 / ref=5 / no-allow-non-conformance / no-repeat-headers / annexb / no-aud / no-hrd / info / hash=0 / no-temporal-layers / open-gop / min-keyint=23 / keyint=240 / gop-lookahead=0 / bframes=12 / b-adapt=2 / b-pyramid / bframe-bias=0 / rc-lookahead=60 / lookahead-slices=4 / scenecut=40 / radl=0 / no-splice / no-intra-refresh / ctu=32 / min-cu-size=8 / rect / amp / max-tu-size=32 / tu-inter-depth=4 / tu-intra-depth=4 / limit-tu=1 / rdoq-level=2 / dynamic-rd=0.00 / no-ssim-rd / signhide / no-tskip / nr-intra=0 / nr-inter=0 / no-constrained-intra / no-strong-intra-smoothing / max-merge=4 / limit-refs=2 / limit-modes / me=3 / subme=7 / merange=57 / temporal-mvp / weightp / weightb / no-analyze-src-pics / deblock=-3:-3 / no-sao / no-sao-non-deblock / rd=6 / no-early-skip / no-rskip / no-fast-intra / no-tskip-fast / no-cu-lossless / no-b-intra / no-splitrd-skip / rdpenalty=0 / psy-rd=2.00 / psy-rdoq=1.00 / no-rd-refine / no-lossless / cbqpoffs=0 / crqpoffs=0 / rc=crf / crf=20.0 / qcomp=0.60 / qpstep=4 / stats-write=0 / stats-read=0 / vbv-maxrate=50000 / vbv-bufsize=50000 / vbv-init=0.9 / crf-max=0.0 / crf-min=0.0 / ipratio=1.40 / pbratio=1.30 / aq-mode=1 / aq-strength=1.00 / no-cutree / zone-count=0 / no-strict-cbr / qg-size=32 / no-rc-grain / qpmax=69 / qpmin=0 / no-const-vbv / sar=1 / overscan=0 / videoformat=5 / range=0 / colorprim=2 / transfer=2 / colormatrix=2 / chromaloc=0 / display-window=0 / max-cll=0,0 / min-luma=0 / max-luma=1023 / log2-max-poc-lsb=8 / vui-timing-info / vui-hrd-info / slices=1 / no-opt-qp-pps / no-opt-ref-list-length-pps / no-multi-pass-opt-rps / scenecut-bias=0.05 / no-opt-cu-delta-qp / no-aq-motion / no-hdr / no-hdr-opt / no-dhdr10-opt / no-idr-recovery-sei / analysis-reuse-level=5 / scale-factor=0 / refine-intra=0 / refine-inter=0 / refine-mv=0 / refine-ctu-distortion=0 / no-limit-sao / ctu-info=0 / no-lowpass-dct / refine-analysis-type=0 / copy-pic=1 / max-ausize-factor=1.0 / no-dynamic-refine / no-single-sei / no-hevc-aq / qp-adaptation-range=1.00
Default                                  : Yes
Forced                                   : No

Audio #1
ID                                       : 2
Format                                   :
Format/Info                              : Digital Theater Systems
Codec ID                                 : A_DTS
Duration                                 : 1 h 52 min
Bit rate mode                            : Constant
Bit rate                                 : 1 509 kb/s
Channel(s)                               : 6 channels
Channel positions                        : Front: L C R, Side: L R, LFE
Sampling rate                            : 48.0 kHz
Frame rate                               : 93.750 FPS (512 SPF)
Bit depth                                : 24 bits
Compression mode                         : Lossy
Stream size                              : 1.19 GiB (13%)
Title                                    : ПД - 5.1 @ 1536 kbps
Language                                 : Ukrainian
Default                                  : Yes
Forced                                   : Yes

Audio #2
ID                                       : 3
Format                                   : AC-3
Format/Info                              : Audio Coding 3
Codec ID                                 : A_AC3
Duration                                 : 1 h 52 min
Bit rate mode                            : Constant
Bit rate                                 : 640 kb/s
Channel(s)                               : 6 channels
Channel positions                        : Front: L C R, Side: L R, LFE
Sampling rate                            : 48.0 kHz
Frame rate                               : 31.250 FPS (1536 SPF)
Bit depth                                : 16 bits
Compression mode                         : Lossy
Stream size                              : 517 MiB (6%)
Title                                    : Original - 5.1 @ 640 kbps
Language                                 : English
Service kind                             : Complete Main
Default                                  : No
Forced                                   : No

Text #1
ID                                       : 4
Format                                   : UTF-8
Codec ID                                 : S_TEXT/UTF8
Codec ID/Info                            : UTF-8 Plain Text
Duration                                 : 1 h 24 min
Bit rate                                 : 0 b/s
Count of elements                        : 5
Stream size                              : 155 Bytes (0%)
Title                                    : Forced
Language                                 : Ukrainian
Default                                  : Yes
Forced                                   : Yes

Text #2
ID                                       : 5
Format                                   : UTF-8
Codec ID                                 : S_TEXT/UTF8
Codec ID/Info                            : UTF-8 Plain Text
Duration                                 : 3 s 10 ms
Bit rate                                 : 98 b/s
Count of elements                        : 2
Stream size                              : 37.0 Bytes (0%)
Title                                    : Forced
Language                                 : English
Default                                  : No
Forced                                   : No

Text #3
ID                                       : 6
Format                                   : UTF-8
Codec ID                                 : S_TEXT/UTF8
Codec ID/Info                            : UTF-8 Plain Text
Duration                                 : 1 h 51 min
Bit rate                                 : 40 b/s
Count of elements                        : 1370
Stream size                              : 33.3 KiB (0%)
Title                                    : Full
Language                                 : English
Default                                  : No
Forced                                   : No

Menu
00:00:00.000                             : : 1. Navigating The Wonder
00:04:33.189                             : : 2. Return Home
00:07:24.235                             : : 3. Canceled Plans
00:12:07.434                             : : 4. Through The Looking Glass
00:16:39.789                             : : 5. Old Friends
00:22:47.615                             : : 6. Chronosphere
00:24:59.623                             : : 7. Time's Castle
00:30:18.232                             : : 8. The Grand Clock
00:35:29.793                             : : 9. Arrival Of The Red Queen
00:41:32.989                             : : 10. Ocean Of Time
00:45:20.050                             : : 11. Coronation
00:51:35.675                             : : 12. Warning The Hatter
00:54:11.039                             : : 13. Tea Party With Time
00:57:40.123                             : : 14. Tart Trouble
01:04:18.521                             : : 15. "The Stroke Of Six"
01:09:18.988                             : : 16. Escape From The Asylum
01:12:46.278                             : : 17. Horunvendush Day
01:18:07.390                             : : 18. Red Queen's Lair
01:23:20.244                             : : 19. Changing The Past
01:27:34.748                             : : 20. Running Out Of Time
01:32:15.947                             : : 21. Family Reunion
01:36:40.461                             : : 22. Goodbyes
01:40:12.588                             : : 23. Setting Sail
01:43:14.813                             : : 24. End Credits
Світлини




Джерело: &
Особиста оцінка: 10 - без зайвих вагань рекомендую всім!


Бронзовий реліз (на рейтинг впливає 75% завантаженого)
 Трекер:    Зареєстрований   

Завантажити / скачати фільм українською



відео для новачків



 Зареєстрований:   2019-07-15 08:53
 Розмір:   16.4 GB 
 Оцінка фільму:   9.5/10 (Голосів: 8)
   
Ваш часовий пояс: GMT + 2 Години

Нова тема   Відповісти