Крапля / The Blob (1988) Remux 1080p Ukr/Eng | Sub Eng

Нові коментарі

Нова тема   Відповісти
Автор Повідомлення
MakRA 
VIP


З нами з: 11.11.18
Востаннє: 01.10.20
Повідомлень: 1120

2019-07-15 02:26  
Крапля / The Blob (1988) Remux 1080p Ukr/Eng | Sub Eng


Український постер від п.Тирік'а:

Альтернативні обкладинки:


Жанр: фантастика, жахи, трилер
Країна: США



Кінокомпанія: TriStar Pictures, Palisades California Inc.
Режисер: Чак Рассел [Chuck Russell]
Актори: Кевін Ділон [Kevin Dillon], Шонні Сміт [Shawnee Smith], Донован Лейч мол. [Donovan Leitch Jr.], Джеффрі ДеМан [Jeffrey DeMunn], Кенді Кларк [Candy Clark], Джо Сенека [Joe Seneca]

Сюжет:
Принесена на землю метеоритом невідома форма життя пожирає все на своєму шляху, постійно збільшуючись у розмірах. Жителі невеликого містечка, яке опинилося на шляху ненаситної субстанції, опиняються у смертельній небезпеці ...


Тривалість: 01:35:00
Якість: Remux 1080p
Відео:
кодек:
розмір кадру: 1920 х 1080
бітрейт: 20 Mб/с

Аудіо # 1:
мова: українська
переклад: двоголосий закадровий
кодек: 2.0
бітрейт: 192 кб/с

Аудіо # 2:
мова: англійська
переклад: оригінал
кодек: -HD MA 5.1
бітрейт: 2696 кб/с

Субтитри: (Full)
мова: англійська
тип: програмні (м'які)
формат: *.srt

Збережено оригінальні розділи, як на Blu-ray.
Info
General
Unique ID : 321992629350253897988895204100989850780 (0xF23D8651050F044EEA270B8AAA89149C)
Complete name : H:\The Blob (1988) Remux 1080p UkrEng Sub Eng [Hurtom].
Format :
Format version : Version 4 / Version 2
File size : 15.2 GiB
Duration : 1 h 35 min
Overall bit rate mode : Variable
Overall bit rate : 22.9 Mb/s
Movie name : Крапля / The Blob (1988) Remux 1080p Ukr/Eng | Sub Eng [Hurtom]
Encoded date : UTC 2019-07-14 22:16:03
Writing application : v25.0.0 ('Prog Noir') 64-bit
Writing library : libebml v1.3.6 + v1.4.9

Video
ID : 1
Format : AVC
Format/Info : Advanced Video Codec
Format profile : [email protected]
Format settings, CABAC : Yes
Format settings, RefFrames : 4 frames
Codec ID : V_MPEG4/ISO/AVC
Duration : 1 h 35 min
Bit rate mode : Variable
Bit rate : 20.0 Mb/s
Maximum bit rate : 35.0 Mb/s
Width : 1 920 pixels
Height : 1 080 pixels
Display aspect ratio : 16:9
Frame rate mode : Constant
Frame rate : 23.976 (24000/1001) FPS
Standard : NTSC
Color space : YUV
Chroma subsampling : 4:2:0
Bit depth : 8 bits
Scan type : Progressive
Bits/(Pixel*Frame) : 0.402
Stream size : 13.3 GiB (87%)
Title : The Blob (1988) Remux 1080p Ukr/Eng | Sub Eng [Hurtom]
Language : Ukrainian
Default : Yes
Forced : Yes
Color range : Limited
Color primaries : BT.709
Transfer characteristics : BT.709
Matrix coefficients : BT.709

Audio #1
ID : 2
Format : AC-3
Format/Info : Audio Coding 3
Format settings, Endianness : Big
Codec ID : A_AC3
Duration : 1 h 35 min
Bit rate mode : Constant
Bit rate : 192 kb/s
Channel(s) : 2 channels
Channel positions : Front: L R
Sampling rate : 48.0 kHz
Frame rate : 31.250 FPS (1536 SPF)
Bit depth : 16 bits
Compression mode : Lossy
Stream size : 130 MiB (1%)
Title : DVO [1+1] 2.0
Language : Ukrainian
Service kind : Complete Main
Default : Yes
Forced : Yes

Audio #2
ID : 3
Format :
Format/Info : Digital Theater Systems
Format profile : MA / Core
Mode : 16
Format settings, Endianness : Big
Codec ID : A_DTS
Duration : 1 h 35 min
Bit rate mode : Variable / Constant
Bit rate : 2 696 kb/s / 1 509 kb/s
Channel(s) : 6 channels
Channel positions : Front: L C R, Side: L R, LFE
Sampling rate : 48.0 kHz
Frame rate : 93.750 FPS (512 SPF)
Bit depth : 24 bits
Compression mode : Lossless / Lossy
Stream size : 1.79 GiB (12%)
Title : Original -HD MA 5.1
Language : English
Default : No
Forced : No

Text
ID : 4
Format : UTF-8
Codec ID : S_TEXT/UTF8
Codec ID/Info : UTF-8 Plain Text
Duration : 1 h 31 min
Bit rate : 47 b/s
Count of elements : 896
Stream size : 31.7 KiB (0%)
Title : Eng (Full)
Language : English
Default : No
Forced : No

Menu
00:00:00.000 : en:00:00:00.000
00:07:32.952 : en:00:07:32.952
00:16:18.269 : en:00:16:18.269
00:23:50.929 : en:00:23:50.929
00:32:13.265 : en:00:32:13.265
00:40:45.234 : en:00:40:45.234
00:47:34.435 : en:00:47:34.435
00:57:08.008 : en:00:57:08.008
01:03:57.042 : en:01:03:57.042
01:13:27.486 : en:01:13:27.486
01:21:48.320 : en:01:21:48.320
01:30:36.264 : en:01:30:36.264
Скріншоти
Джерело: &
Дякую п. MAKAPOHHIK і п. robotron005 за українську доріжку.
Особиста оцінка: 10 - без зайвих вагань рекомендую всім!


Золотий реліз (завантажене не впливає на рейтинг)
 Трекер:    Зареєстрований   

Завантажити / скачати фільм українською



відео для новачків



 Зареєстрований:   2019-07-15 02:26
 Розмір:   15.19 GB 
 Оцінка фільму:   9.8/10 (Голосів: 5)
   
Інші релізи
   Крапля / The Blob (1988) 720p Ukr/Eng | Sub Eng staf777  3 / 0   7.07 GB   2019-07-21 16:36 
   Крапля / The Blob (1988) robotron005  3 / 0   1.46 GB   2015-01-29 18:52 
Ваш часовий пояс: GMT + 2 Години

Нова тема   Відповісти