Певний науковий Акселератор / Toaru Kagaku no Accelerator (01-06 із 12) (2019) 1080p Jap | Ukr Sub

Нові коментарі

Нова тема   Відповісти
Останній раз роздавалося Moroz Andrii (2019-08-22)
Автор Повідомлення
Arch Enemy 
VIP


З нами з: 30.08.12
Востаннє: 19.08.19
Повідомлень: 1689

2019-07-14 23:30  
Певний науковий Акселератор / Toaru Kagaku no Accelerator (2019) 1080p Jap | Ukr Sub


Вікове обмеження: 13+



Країна: Японія
Період трансляції: з з 12.07.2019 по ...
Жанр: пригоди, комедія, містика, фантастика
Аніместудія: J.C.STAFF
Режисер: Каманака Нобухару
Сейю: Окамото Набухіко, Хідака Ріна, Кубо Юріка, Мано Аюмі, Оосака Рьота, Ватабе Саюмі, Кайда Юуко, Тоума Юмі, Сасакі Нозомі та інші.

Сюжет: Акселератор, найсильніший еспер Академія-Сіті, відпочиває в лікарні після того, як урятував Останнє Замовлення і в процесі отримав кулю в голову. Але його лікування переривається, коли загадкова дівчина приносить фото маленької подруги Акселератора і просить про допомогу. Тепер вони протистоять організації фанатиків, які хочуть за всяку ціну вершити «справедливість». Їхні зловісні плани загрожують Останньому Замовленню, Академія-Сіті і навіть усьому світу.

Кількість серій: ~12 (1 серія / ~24 хв.)
Перелік серій
01. Акселератор: найсильніший еспер Академія-Сіті
02. Некромантка: заклинателька смерті
03. Номери: талісмани чотирьох лих
04. Третій номер: штучна душа Хотоу
05. ДП: темний бік захисника
06. Стерв'ятник: загін трупожерів

Відео:

якість:
контейнер:
кодек:
частота кадрів: 23.976 кадрів/сек.
розмір кадру: 1920х1080 пікс.
бітрейт: ~3700 кбіт/сек.
бітність: 8 біт

Аудіо:
мова: японська, оригінал
кодек:
кількість каналів: 2.0
бітрейт: 128 кбіт/сек.
частота: 44100 Гц

Субтитри:
мова: українська, повні
формат:
тип: м'які, внутрішні

Переклад: MadGuy
Джерело перекладу та релізу: AniUA
Скріншоти



MI
General
Unique ID : 203284363676958402168404495293383798496 (0x98EF24F25C16E67FB582D2F6D2556EE0)
Complete name : E:\Anime\Toaru_Kagaku_no_Accelerator_[]_[1080p]_[UkrSub]\Toaru_Kagaku_no_Accelerator_01_[1080p]_[UkrSub].
Format :
Format version : Version 4
File size : 651 MiB
Duration : 23 min 41 s
Overall bit rate : 3 844 kb/s
Encoded date : UTC 2019-07-13 18:38:59
Writing application : v7.0.0 ('Where We Going') 64bit built on Jun 9 2014 15:16:27
Writing library : libebml v1.3.0 + v1.4.1
Attachments : tahoma.ttf / georgiab.ttf / CRC35.otf / BOMGcomJeffCampbell.ttf / BarnaulGrotesk.otf / timesbd.ttf

Video
ID : 1
Format : AVC
Format/Info : Advanced Video Codec
Format profile : [email protected]
Format settings : CABAC / 4 Ref Frames
Format settings, CABAC : Yes
Format settings, Reference : 4 frames
Codec ID : V_MPEG4/ISO/AVC
Duration : 23 min 40 s
Bit rate : 3 705 kb/s
Width : 1 920 pixels
Height : 1 080 pixels
Display aspect ratio : 16:9
Frame rate mode : Constant
Frame rate : 23.976 (24000/1001) FPS
Color space : YUV
Chroma subsampling : 4:2:0
Bit depth : 8 bits
Scan type : Progressive
Bits/(Pixel*Frame) : 0.075
Stream size : 627 MiB (96%)
Writing library : core 142
Encoding settings : cabac=1 / ref=4 / deblock=1:1:1 / analyse=0x3:0x113 / me=umh / subme=8 / psy=1 / psy_rd=0.40:0.00 / mixed_ref=1 / me_range=16 / chroma_me=1 / trellis=1 / 8x8dct=1 / cqm=0 / deadzone=21,11 / fast_pskip=1 / chroma_qp_offset=-2 / threads=12 / lookahead_threads=2 / sliced_threads=0 / nr=0 / decimate=1 / interlaced=0 / bluray_compat=0 / constrained_intra=0 / bframes=3 / b_pyramid=2 / b_adapt=2 / b_bias=0 / direct=3 / weightb=1 / open_gop=0 / weightp=2 / keyint=96 / keyint_min=48 / scenecut=40 / intra_refresh=0 / rc_lookahead=48 / rc=crf / mbtree=1 / crf=15.0 / qcomp=0.60 / qpmin=0 / qpmax=69 / qpstep=4 / vbv_maxrate=8000 / vbv_bufsize=12000 / crf_max=0.0 / nal_hrd=none / filler=0 / ip_ratio=1.40 / aq=1:0.60
Default : Yes
Forced : No

Audio
ID : 2
Format : LC
Format/Info : Advanced Audio Codec Low Complexity
Codec ID : A_AAC-2
Duration : 23 min 40 s
Bit rate : 128 kb/s
Channel(s) : 2 channels
Channel layout : L R
Sampling rate : 44.1 kHz
Frame rate : 43.066 FPS (1024 SPF)
Compression mode : Lossy
Delay relative to video : -83 ms
Stream size : 21.7 MiB (3%)
Language : Japanese
Default : Yes
Forced : No

Text
ID : 3
Format :
Codec ID : S_TEXT/
Codec ID/Info : Advanced Sub Station Alpha
Duration : 23 min 37 s
Bit rate : 156 b/s
Count of elements : 344
Compression mode : Lossless
Stream size : 27.1 KiB (0%)
Title : Subs by MadGuy
Language : Ukrainian
Default : Yes
Forced : Yes
Увага! Якщо бажаєте взяти дані субтитри для озвучування, спершу спитайте дозволу ►►► автора ◄◄◄!

Якщо вам подобаються наші релізи, і є бажання чимось допомогти проекту, то будемо раді, якщо ви підтримаєте нас фінансово. І, якщо хочете подякувати за якесь конкретне аніме, або форсувати процес озвучення, прохання вказати у коментарі до переказу.
Підтримати/подякувати «AniUA»
Також у нас можна замовити переклад або озвучення
.


Авторський реліз (завантажувати можна без реєстрації)
 Трекер:    Зареєстрований   

Завантажити / скачати аніме українською



відео для новачків



 Зареєстрований:   2019-08-19 18:18
 Розмір:   4.85 GB 
 Оцінка аніме:   8.2/10 (Голосів: 5)
   
Arch Enemy 
VIP


З нами з: 30.08.12
Востаннє: 19.08.19
Повідомлень: 1689

2019-07-20 21:46  
Додано 2 серію

Arch Enemy 
VIP


З нами з: 30.08.12
Востаннє: 19.08.19
Повідомлень: 1689

2019-07-29 18:08  
Додано 3 серію

Arch Enemy 
VIP


З нами з: 30.08.12
Востаннє: 19.08.19
Повідомлень: 1689

2019-08-05 22:30  
Додано 4 серію

Виправлено не значні помилки в 2-3 серіях, додано шрифти зовнішніми файлами (провсяк випадок).

Arch Enemy 
VIP


З нами з: 30.08.12
Востаннє: 19.08.19
Повідомлень: 1689

2019-08-13 15:07  
Додано 5 серію

Arch Enemy 
VIP


З нами з: 30.08.12
Востаннє: 19.08.19
Повідомлень: 1689

2019-08-19 18:18  
Додано 6 серію

Ваш часовий пояс: GMT + 2 Години

Нова тема   Відповісти