Ватага / Загін / Posse (1993) 720p Ukr/Eng | Sub Eng

Нові коментарі

Нова тема   Відповісти
Автор Повідомлення
Arch Enemy 
VIP


З нами з: 30.08.12
Востаннє: 19.08.19
Повідомлень: 1689

2019-07-14 22:06  
Ватага / Загін / Posse (1993) 720p Ukr/Eng | Sub Eng


Жанр: вестерн
Країна: США, Велика Британія



Кінокомпанія: PolyGram Filmed Entertainment, Working Title Films
Режисер: Маріо Ван Піблс
Актори: Маріо Ван Піблс, Стівен Болдвін, Чарльз Лейн, Том "Тайні" Лістер мол., Біґ Дедді Кейн, Біллі Зейн, Блер Андервуд, Мелвін Ван Піблз, Саллі Річардсон, Тоун Лок та інші.

Сюжет:
1898 рік. Джесі Лі і його друзі Малий Джей, велетень Обобо, Візі та Енджел б'ються в іспано-американській війні на Кубі. Зрада полковника Ґрехема штовхає Джесі та його друзів на створення власного загону, який прагне помсти і закликає до справедливості...


Тривалість: 01:51:06
Якість: 720p

Відео:
кодек:
розмір кадру: 1280 х 544
бітрейт: ~ 4 600 кбіт/сек.
контейнер:

Аудіо # 1:
мова: українська
озвучення: багатоголосе закадрове
кодек: 2.0
бітрейт: 224 кбіт/сек.

Аудіо # 2:
мова: англійська
озвучення: оригінал
кодек: 2.0
бітрейт: 224 кбіт/сек.

Субтитри:
мова: англійська
тип: програмні (м'які)
формат: SRT
Info
General
Unique ID : 204029026857580788592287367005575968442 (0x997E8FAD177BCFD723FE243B2745F6BA)
Complete name : E:\Films\Posse [1993] 720p.
Format :
Format version : Version 4
File size : 3.95 GiB
Duration : 1 h 51 min
Overall bit rate : 5 088 kb/s
Movie name : Ватага / Posse [1993]
Encoded date : UTC 2019-07-14 17:17:36
Writing application : v26.0.0 ('In The Game') 64-bit
Writing library : libebml v1.3.6 + v1.4.9

Video
ID : 1
Format : AVC
Format/Info : Advanced Video Codec
Format profile : [email protected]
Format settings : CABAC / 5 Ref Frames
Format settings, CABAC : Yes
Format settings, Reference : 5 frames
Codec ID : V_MPEG4/ISO/AVC
Duration : 1 h 51 min
Bit rate : 4 637 kb/s
Width : 1 280 pixels
Height : 544 pixels
Display aspect ratio : 2.35:1
Frame rate mode : Constant
Frame rate : 23.976 FPS
Color space : YUV
Chroma subsampling : 4:2:0
Bit depth : 8 bits
Scan type : Progressive
Bits/(Pixel*Frame) : 0.278
Stream size : 3.60 GiB (91%)
Title : Posse [1993]
Writing library : core 130 r2273 b3065e6
Encoding settings : cabac=1 / ref=5 / deblock=1:-3:-3 / analyse=0x3:0x133 / me=umh / subme=11 / psy=1 / psy_rd=1.00:0.10 / mixed_ref=1 / me_range=32 / chroma_me=1 / trellis=2 / 8x8dct=1 / cqm=0 / deadzone=21,11 / fast_pskip=1 / chroma_qp_offset=-3 / threads=6 / lookahead_threads=1 / sliced_threads=0 / nr=0 / decimate=1 / interlaced=0 / bluray_compat=0 / constrained_intra=0 / bframes=8 / b_pyramid=2 / b_adapt=2 / b_bias=0 / direct=3 / weightb=1 / open_gop=0 / weightp=2 / keyint=250 / keyint_min=23 / scenecut=40 / intra_refresh=0 / rc_lookahead=60 / rc=2pass / mbtree=1 / bitrate=4637 / ratetol=1.0 / qcomp=0.60 / qpmin=0 / qpmax=69 / qpstep=4 / cplxblur=20.0 / qblur=0.5 / ip_ratio=1.40 / aq=1:1.00
Language : English
Default : Yes
Forced : Yes

Audio #1
ID : 2
Format : LC
Format/Info : Advanced Audio Codec Low Complexity
Codec ID : A_AAC-2
Duration : 1 h 51 min
Bit rate : 224 kb/s
Channel(s) : 2 channels
Channel layout : L R
Sampling rate : 48.0 kHz
Frame rate : 46.875 FPS (1024 SPF)
Compression mode : Lossy
Stream size : 178 MiB (4%)
Title : AniUA MVO
Language : Ukrainian
Default : Yes
Forced : Yes

Audio #2
ID : 3
Format : LC
Format/Info : Advanced Audio Codec Low Complexity
Codec ID : A_AAC-2
Duration : 1 h 51 min
Bit rate : 224 kb/s
Channel(s) : 2 channels
Channel layout : L R
Sampling rate : 48.0 kHz
Frame rate : 46.875 FPS (1024 SPF)
Compression mode : Lossy
Stream size : 178 MiB (4%)
Title : Original
Language : English
Default : No
Forced : No

Text
ID : 4
Format : UTF-8
Codec ID : S_TEXT/UTF8
Codec ID/Info : UTF-8 Plain Text
Duration : 1 h 46 min
Bit rate : 56 b/s
Count of elements : 1130
Stream size : 44.4 KiB (0%)
Title : English
Language : English
Default : No
Forced : No

Menu
00:00:00.000 : en:Chapter 01
00:01:27.000 : en:Chapter 02
00:03:25.000 : en:Chapter 03
00:15:00.000 : en:Chapter 04
00:20:00.000 : en:Chapter 05
00:25:00.000 : en:Chapter 06
00:30:00.000 : en:Chapter 07
00:35:00.000 : en:Chapter 08
00:40:00.000 : en:Chapter 09
00:45:00.000 : en:Chapter 10
00:50:00.000 : en:Chapter 11
00:55:00.000 : en:Chapter 12
01:00:00.000 : en:Chapter 13
01:05:00.000 : en:Chapter 14
01:10:00.000 : en:Chapter 15
01:15:00.000 : en:Chapter 16
01:20:00.000 : en:Chapter 17
01:25:00.000 : en:Chapter 18
01:30:00.000 : en:Chapter 19
01:35:00.000 : en:Chapter 20
01:40:00.000 : en:Chapter 21
01:46:09.000 : en:Chapter 22
Скріншоти
Озвучено за фінансової підтримки NemoInFire


Джерело озвучення та релізу: AniUA


Авторський реліз (завантажувати можна без реєстрації)
 Трекер:    Зареєстрований   

Завантажити / скачати фільм українською



відео для новачків



 Зареєстрований:   2019-07-14 22:10
 Розмір:   3.95 GB 
 Оцінка фільму:   8.7/10 (Голосів: 7)
   
NemoInFire 
Відео Гуртом - фільмокрай
Відео Гуртом - фільмокрай


З нами з: 12.11.07
Востаннє: 21.08.19
Повідомлень: 632

2019-07-15 12:54  
Прохання підтримати озвучення українською наступних вестернів -

Slow West (2015)
The Sisters Brothers (2018)
The Ballad of Buster Scruggs (2018)


деталі тут

bot 
робот


З нами з: 30.09.07
Востаннє: 26.05.05
Повідомлень: 21790

2019-07-16 18:26  
Тему перенесено з Фільми до форуму Фільми в HD


Dark Invader

kryk-v.ya. 
VIP


З нами з: 14.02.14
Востаннє: 21.08.19
Повідомлень: 1523

2019-07-23 23:15  
суперовий фільм, величезне дякую всім хто долучився до створення цього релізу.
Ваш часовий пояс: GMT + 2 Години

Нова тема   Відповісти