Формула 1. Сезон 2019. Етап 10. Гран-Прі Великої Британії. Гонка (14.07.2019) HDTV 1080p 2xUkr/Pol

Нові коментарі

Нова тема   Відповісти
Останній раз роздавалося shkaraputa (2020-10-30)
Автор Повідомлення
sergiyko.5 
Забанено
Забанено


З нами з: 25.02.16
Востаннє: 29.10.20
Повідомлень: 3651

2019-07-14 19:11  
Формула 1. Сезон 2019. Етап 10. Гран-Прі Великої Британії. Гонка (14.07.2019) HDTV 1080p 2xUkr/Pol

Формула 1. Сезон 2019. Етап 10. Гран-Прі Великої Британії. Гонка (14.07.2019) HDTV 1080p 2xUkr/Pol

Жанр: Перегони Формули 1
Країна: Велика Британія
Телеканал: Eleven Sports 1
Коментар: Роман Гончаров(1), Максим Подзігун(2), польською(3)

Опис:
Гонка десятого етапу Гран-Прі Великої Британії 2019 року.


Якість: HDTV

Відео:кодек: розмір кадру: 1920 х 1080 бітрейт: 6800 кб/с
Аудіо 1: мова: українська кодек: MP2 2.0 бітрейт: 192 кб/с
Аудіо 2: мова: українська кодек: MP2 2.0 бітрейт: 192 кб/с
Аудіо 3: мова: польська кодек: АС3 2.0 бітрейт: 128 кб/с

Примітка: наявна реклама до початку першого кола була вирізана
Тривалість:
01:56:46
Про файл:
General
Unique ID : 317334851698713687289064246714435646804 (0xEEBC7825E8562EC27CDDDE5100303554)
Complete name : F:\Torrents2\SPORT\Formula 1\F1.2019.Race\F1.2019.10.Britain.Race.1080p.HDTV.2xUkr.Pol.
Format :
Format version : Version 4
File size : 5.98 GiB
Duration : 1 h 56 min
Overall bit rate : 7 329 kb/s
Movie name : by sergiyko
Encoded date : UTC 2019-07-14 17:08:13
Writing application : v35.0.0 ('All The Love In The World') 64-bit
Writing library : libebml v1.3.9 + v1.5.2

Video
ID : 1
Format : AVC
Format/Info : Advanced Video Codec
Format profile : [email protected]
Format settings : CABAC / 4 Ref Frames
Format settings, CABAC : Yes
Format settings, Reference : 4 frames
Codec ID : V_MPEG4/ISO/AVC
Duration : 1 h 56 min
Bit rate : 6 782 kb/s
Width : 1 920 pixels
Height : 1 080 pixels
Display aspect ratio : 16:9
Frame rate mode : Constant
Frame rate : 25.000 FPS
Standard : Component
Color space : YUV
Chroma subsampling : 4:2:0
Bit depth : 8 bits
Scan type : Interlaced
Scan type, store method : Separated fields
Scan order : Top Field First
Bits/(Pixel*Frame) : 0.131
Stream size : 5.53 GiB (93%)
Language : English
Default : Yes
Forced : No
Color range : Limited
Color primaries : BT.709
Transfer characteristics : BT.709
Matrix coefficients : BT.709

Audio #1
ID : 2
Format : MPEG Audio
Format version : Version 1
Format profile : Layer 2
Codec ID : A_MPEG/L2
Codec ID/Hint : MP2
Duration : 1 h 56 min
Bit rate mode : Constant
Bit rate : 192 kb/s
Channel(s) : 2 channels
Sampling rate : 48.0 kHz
Frame rate : 41.667 FPS (1152 SPF)
Compression mode : Lossy
Stream size : 160 MiB (3%)
Title : Роман Гончаров
Language : Ukrainian
Default : Yes
Forced : No

Audio #2
ID : 3
Format : MPEG Audio
Format version : Version 1
Format profile : Layer 2
Codec ID : A_MPEG/L2
Codec ID/Hint : MP2
Duration : 1 h 56 min
Bit rate mode : Constant
Bit rate : 192 kb/s
Channel(s) : 2 channels
Sampling rate : 48.0 kHz
Frame rate : 41.667 FPS (1152 SPF)
Compression mode : Lossy
Stream size : 160 MiB (3%)
Title : Максим Подзігун
Language : Ukrainian
Default : No
Forced : No

Audio #3
ID : 4
Format : AC-3
Format/Info : Audio Coding 3
Commercial name : Dolby Digital
Codec ID : A_AC3
Duration : 1 h 56 min
Bit rate mode : Constant
Bit rate : 160 kb/s
Channel(s) : 2 channels
Channel layout : L R
Sampling rate : 48.0 kHz
Frame rate : 31.250 FPS (1536 SPF)
Bit depth : 16 bits
Compression mode : Lossy
Stream size : 134 MiB (2%)
Language : Polish
Service kind : Complete Main
Default : No
Forced : No
Скріншоти:


Зведення: sergiyko


 Трекер:    Зареєстрований   

Завантажити / скачати торрент



відео для новачків



 Зареєстрований:   2019-07-14 19:11
 Розмір:   5.98 GB 
 Оцінка:   9.8/10 (Голосів: 12)
   
Ваш часовий пояс: GMT + 2 Години

Нова тема   Відповісти