Червоне сонце (Soleil rouge) / Red Sun (1971) Remux 1080p Ukr/Eng | Sub Eng

Нові коментарі

Нова тема   Відповісти
Автор Повідомлення
MakRA 
VIP


З нами з: 11.11.18
Востаннє: 19.09.20
Повідомлень: 1114

2019-07-14 18:45  
Червоне сонце (Soleil rouge) / Red Sun (1971) Remux 1080p Ukr/Eng | Sub Eng


Альтернативні обкладинки:

[

Альтернативні постери:





Жанр: вестерн, екшн, пригодницький
Країна: Франція, Італія, Іспанія



Кінокомпанія: Les Films Corona, Oceania Produzioni Internazionali Cinematografiche, Producciones Balcázar S.A.
Режисер: Теренс Янг [Terence Young]
Актори: Чарльз Бронсон [Charles Bronson], Ален Делон [Alain Delon], Урсула Андрес [Ursula Andress], Тошіро Міфуне [Toshirô Mifune], Гвідо Лоллобріджида [Guido Lollobrigida], Капучіне [Capucine], Ентоні Доусон [Anthony Dawson], Жорж Лікан [Georges Lycan], Тетсу Накамура [Tetsu Nakamura]

Сюжет:
Незвичайний і чудовий вестерн, в якому беруть участь зірки американського, французького і японського кіно. У сюжеті переплелися елементи самурайських, гангстерських і пригодницьких фільмів.
1871. Дикий Захід. Лінк і Гоч здійснюють напад на потяг, в якому подорожує японський посол. В результаті Гоч кидає свого напарника, забираючи всі гроші і безцінний самурайський меч - подарунок президенту від імператора Японії. Лінк та Курода - єдиний самурай, який супроводжував посла і якому пощастило залишитися живим, змушені забути всі відмінності між ними і відправитися на пошуки Гоча. Для одного це питання грошей, для другого - питання честі. Якщо Курода не поверне меч через сім днів, він повинен буде вбити Лінка і себе. Найцікавіше у фільмі - зіткнення своєрідних уявлень про честь ковбоя і самурая, для якого бусідо (кодекс честі) - понад життя.


Тривалість: 01:54:29
Якість: Remux 1080p
Відео:
кодек:
розмір кадру: 1920 х 1080
бітрейт: 29,8 Mб/с

Аудіо # 1:
мова: українська
переклад: двоголосий закадровий
кодек: 2.0
бітрейт: 192 кб/с
Примітка від п.Lan'а: при озвучуванні в студії українською мовою голоси були накладені на французький дубляж
Про озвучення:
Ролі озвучили:Олександр Завальський і Наталя Ярошенко.
Аудіо # 2:
мова: англійська
переклад: оригінал
кодек: -HD MA 2.0
бітрейт: 1411 кб/с

Субтитри: (Full)
мова: англійська
тип: пререндерні
формат: *.pgs
Info
General
Unique ID : 284451585421780738048251334875042072334 (0xD5FF61F2AD9477CA1EBCEEB23A8CC70E)
Complete name : F:\Вестерни\Soleil rouge (Red Sun) (1971) Remux 1080p UkrEng Sub Eng [Hurtom].
Format :
Format version : Version 4 / Version 2
File size : 25.1 GiB
Duration : 1 h 54 min
Overall bit rate mode : Variable
Overall bit rate : 31.4 Mb/s
Movie name : Червоне сонце (Soleil rouge) / Red Sun (1971) Remux 1080p Ukr/Eng | Sub Eng [Hurtom]
Encoded date : UTC 2019-07-13 18:54:29
Writing application : v25.0.0 ('Prog Noir') 64-bit
Writing library : libebml v1.3.6 + v1.4.9

Video
ID : 1
Format : AVC
Format/Info : Advanced Video Codec
Format profile : [email protected]
Format settings, CABAC : Yes
Format settings, RefFrames : 4 frames
Codec ID : V_MPEG4/ISO/AVC
Duration : 1 h 54 min
Bit rate mode : Variable
Bit rate : 29.8 Mb/s
Maximum bit rate : 36.0 Mb/s
Width : 1 920 pixels
Height : 1 080 pixels
Display aspect ratio : 16:9
Frame rate mode : Constant
Frame rate : 23.976 (24000/1001) FPS
Standard : NTSC
Color space : YUV
Chroma subsampling : 4:2:0
Bit depth : 8 bits
Scan type : Progressive
Bits/(Pixel*Frame) : 0.598
Stream size : 23.8 GiB (95%)
Title : Soleil rouge / Red Sun (1971) Remux 1080p Ukr/Eng | Sub Eng [Hurtom]
Language : Ukrainian
Default : Yes
Forced : Yes
Color range : Limited
Color primaries : BT.709
Transfer characteristics : BT.709
Matrix coefficients : BT.709

Audio #1
ID : 2
Format : AC-3
Format/Info : Audio Coding 3
Format settings, Endianness : Big
Codec ID : A_AC3
Duration : 1 h 54 min
Bit rate mode : Constant
Bit rate : 192 kb/s
Channel(s) : 2 channels
Channel positions : Front: L R
Sampling rate : 48.0 kHz
Frame rate : 31.250 FPS (1536 SPF)
Bit depth : 16 bits
Compression mode : Lossy
Stream size : 157 MiB (1%)
Title : DVO [2+2] 2.0
Language : Ukrainian
Service kind : Complete Main
Default : Yes
Forced : Yes

Audio #2
ID : 3
Format :
Format/Info : Digital Theater Systems
Format profile : MA / Core
Mode : 16
Format settings, Endianness : Big
Codec ID : A_DTS
Duration : 1 h 54 min
Bit rate mode : Variable / Constant
Bit rate : 1 411.2 kb/s / 768 kb/s
Channel(s) : 2 channels
Channel positions : Front: L R
Sampling rate : 48.0 kHz
Frame rate : 93.750 FPS (512 SPF)
Bit depth : 24 bits
Compression mode : Lossless / Lossy
Stream size : 1.13 GiB (5%)
Title : Original -HD MA 2.0
Language : English
Default : No
Forced : No

Text
ID : 4
Format : PGS
Muxing mode : zlib
Codec ID : S_HDMV/PGS
Codec ID/Info : Picture based subtitle format used on BDs/HD-DVDs
Duration : 1 h 48 min
Bit rate : 14.4 kb/s
Count of elements : 1412
Stream size : 11.1 MiB (0%)
Title : Eng (Full)
Language : English
Default : No
Forced : No
Скріншоти
Джерело: &
Подяка п. Lan - зведення, та п. gig_Panas - за запис з ТБ.
Особиста оцінка: 10 - без зайвих вагань рекомендую всім!


Золотий реліз (завантажене не впливає на рейтинг)
 Трекер:    Зареєстрований   

Завантажити / скачати фільм українською



відео для новачків



 Зареєстрований:   2019-07-14 18:45
 Розмір:   25.08 GB 
 Оцінка фільму:   10/10 (Голосів: 6)
   
Інші релізи
Jani307 
Свій


З нами з: 09.06.14
Востаннє: 18.09.20
Повідомлень: 132

2019-07-14 19:44  
Виділіть ще, будь ласка, пана Тосіро Міфуне кольором, він на це заслуговує.

Додано через 40 секунд:

А фільм дуже хороший, однозначно до перегляду.

MakRA 
VIP


З нами з: 11.11.18
Востаннє: 19.09.20
Повідомлень: 1114

2019-07-14 19:56  
Jani307 написано:
Тосіро Міфуне

Точно), то я вже вчора вночі робив, пропустив.

hetzendorf 
Забанено
Забанено


З нами з: 23.07.15
Востаннє: 18.09.20
Повідомлень: 2876

2019-07-14 21:10  
Jani307 написано:
Тосіро Міфуне

Тошіро!
Власне через нього та Алена Делона колись дивився це кіно.

don pedro 
Попереджень: 1
Попереджень: 1 


З нами з: 29.06.11
Востаннє: 18.09.20
Повідомлень: 17718

2019-07-14 21:41  
Ален Делон не п'є одеколон.
[email protected] 
VIP


З нами з: 25.03.17
Востаннє: 13.09.20
Повідомлень: 551

2020-04-23 00:48  
Гарний фільм.
Ваш часовий пояс: GMT + 2 Години

Нова тема   Відповісти