Формула 1. Сезон 2019. Етап 10. Гран-Прі Великої Британії. Гонка (14.07.2019) 1080p

Нові коментарі

Нова тема   Відповісти
Автор Повідомлення
sergiyko.5 
VIP


З нами з: 25.02.16
Востаннє: 28.10.20
Повідомлень: 3638

2019-07-14 17:13  
Формула 1. Сезон 2019. Етап 10. Гран-Прі Великої Британії. Гонка (14.07.2019) 1080p

Формула 1. Сезон 2019. Етап 10. Гран-Прі Великої Британії. Гонка (14.07.2019) 1080p

Жанр: Перегони Формули 1
Країна: Велика Британія
Телеканал: F1TV
Коментатор: Максим Подзігун

Опис:
Гонка десятого етапу Гран-Прі Великої Британії 2019 року.


Якість:

Відео:кодек: розмір кадру: 1920 х 1080 бітрейт: 3800 кб/с
Аудіо: мова: українська кодек: ААС 2.0 бітрейт: 128 кб/с
Тривалість:
02:08:07
Про файл:
General
Unique ID : 133916846623031011223502499535112036211 (0x64BF724D9F48A5C0C8635EE02A22DF73)
Complete name : F:\Torrents2\SPORT\Formula 1\F1.2019.Race\F1.2019.10.Britain.Race.1080p..Ukr.
Format :
Format version : Version 4
File size : 3.50 GiB
Duration : 2 h 8 min
Overall bit rate : 3 914 kb/s
Movie name : by sergiyko
Encoded date : UTC 2019-07-14 15:08:16
Writing application : v35.0.0 ('All The Love In The World') 64-bit
Writing library : libebml v1.3.9 + v1.5.2

Video
ID : 1
Format : AVC
Format/Info : Advanced Video Codec
Format profile : [email protected]
Format settings : CABAC / 4 Ref Frames
Format settings, CABAC : Yes
Format settings, Reference : 4 frames
Codec ID : V_MPEG4/ISO/AVC
Duration : 2 h 8 min
Bit rate : 3 784 kb/s
Width : 1 920 pixels
Height : 1 080 pixels
Display aspect ratio : 16:9
Frame rate mode : Constant
Frame rate : 25.000 FPS
Color space : YUV
Chroma subsampling : 4:2:0
Bit depth : 8 bits
Scan type : Progressive
Bits/(Pixel*Frame) : 0.073
Stream size : 3.39 GiB (97%)
Language : English
Default : Yes
Forced : No

Audio
ID : 2
Format : LC
Format/Info : Advanced Audio Codec Low Complexity
Codec ID : A_AAC-2
Duration : 2 h 8 min
Bit rate : 128 kb/s
Channel(s) : 2 channels
Channel layout : L R
Sampling rate : 44.1 kHz
Frame rate : 43.066 FPS (1024 SPF)
Compression mode : Lossy
Delay relative to video : -160 ms
Stream size : 117 MiB (3%)
Title : Максим Подзігун
Language : Ukrainian
Default : Yes
Forced : No
Скріншоти:


Зведення: sergiyko


 Трекер:    Зареєстрований   

Завантажити / скачати торрент



відео для новачків



 Зареєстрований:   2019-07-14 17:13
 Розмір:   3.5 GB 
 Оцінка:   9.8/10 (Голосів: 13)
   
Umbrella.Corps 
Свій


З нами з: 09.04.17
Востаннє: 24.10.20
Повідомлень: 61

2019-07-14 17:24  
оперативно)
Ваш часовий пояс: GMT + 2 Години

Нова тема   Відповісти