Аліта: Бойовий ангел / Alita: Battle Angel (2019) UHD Remux 4K 2160p HDR H.265 Ukr/Eng | Sub Ukr/Eng

Нові коментарі

Нова тема   Відповісти
Автор Повідомлення
Babamin 
Свій


З нами з: 29.12.15
Востаннє: 19.07.19
Повідомлень: 62

2019-07-14 15:10  
Аліта: Бойовий ангел / Alita: Battle Angel (2019) UHD Remux 4K 2160p HDR H.265 Ukr/Eng | Sub Ukr/Eng

Аліта: Бойовий ангел / Alita: Battle Angel (2019) UHD Remux 4K 2160p HDR H.265 Ukr/Eng | Sub Ukr/Eng
«Ангел впаде, і підніметься воїн»



Жанр: бойовик, мелодрама, трилер, фантастика
Країна: Канада, Аргентина, США



Кінокомпанія: Twentieth Century Fox, Lightstorm Entertainment, Troublemaker Studios
Режисер: Роберт Родрігес
Актори: Роза Салазар, Крістоф Вальц, Дженніфер Коннеллі, Магершала Алі, Кіан Джонсон, Ед Скрейн, Джекі Ерл Гейлі, Мішель Родріґес, Ейса Ґонсалес, Каспер Ван Дін та інші

Сюжет:
Через сотні років Земля проживе безліч подій. Люди створять кіборгів, будуть між собою воювати. Доктор Ідо випадково знайшов останки дівчини-кіборга. Свою знахідку чоловік вирішив забрати із собою, щоб полагодити та привести до ладу. Як виявилося, її звуть Аліта. Коли вона прийшла до тями, то зрозуміла, що нічого не пам'ятає. Тепер все навколо для Аліти абсолютно нове, їй до всього треба звикати. Кіборг хоче за всяку ціну відновити ті спогади, яких не вистачає, від чого її намагається захистити доктор Ідо. Він добре знає, що минуле краще не чіпати. Аліта зустрічає нових друзів і вже з їх допомогою намагається знайти істину. Кіборг – остання зі свого роду, і за нею буде велике полювання. В Аліти ж залишилися одні спогади – це прийоми бойових мистецтв. Вона одна буде боротися проти цілого світу, і вона його має змінити.


Тривалість: 02:01:58
Якість: 4K UltraHD Remux 2160p
Контейнер:

Відео:
кодек: H.265
розмір кадру: 3840 х 2160
бітрейт: 41,4 Мб/с
бітова глибина: 10 біт
кольоровий простір: BT.2020 (HDR)

Аудіо # 1:
мова: українська
переклад: професійний дубльований (Blu-ray)
кодек: 5.1
бітрейт: 448 кб/с

Аудіо # 2:
мова: англійська
переклад: оригінал
кодек: Dolby TrueHD with Dolby Atmos 7.1
бітрейт: 5013 кб/с

Аудіо # 3:
мова: англійська
переклад: оригінал
кодек: 5.1
бітрейт: 640 кб/с

Субтитри # 1 (повні):
мова: українська (Blu-ray)
тип: програмні (м'які)
формат: *.srt

Субтитри #2-3
мова: англійська (full, SDH)
тип: програмні (м'які)
формат: *.srt
Info:
General
Complete name : Alita.Battle.Angel.2019.UHD.HDR.REMUX.HEVC.4K.2160p-Toloka.
Format :
Format version : Version 4
File size : 40.5 GiB
Duration : 2 h 1 min
Overall bit rate mode : Variable
Overall bit rate : 47.6 Mb/s
Movie name : Alita: Battle Angel (2019) UHD REMUX HEVC 2160p-Toloka
Encoded date : UTC 2019-07-14 10:51:20
Writing application : v34.0.0 ('Sight and Seen') 64-bit
Writing library : libebml v1.3.7 + v1.5.0

Video
ID : 1
Format : HEVC
Format/Info : High Efficiency Video Coding
Format profile : Main [email protected]@High
HDR format : SMPTE ST 2094 App 4, Version 1, HDR10+ Profile A compatible
Codec ID : V_MPEGH/ISO/HEVC
Duration : 2 h 1 min
Bit rate : 41.4 Mb/s
Width : 3 840 pixels
Height : 2 160 pixels
Display aspect ratio : 16:9
Frame rate mode : Constant
Frame rate : 23.976 (24000/1001) FPS
Color space : YUV
Chroma subsampling : 4:2:0 (Type 2)
Bit depth : 10 bits
Bits/(Pixel*Frame) : 0.208
Stream size : 35.2 GiB (87%)
Title : Alita: Battle Angel (2019) UHD REMUX HEVC 2160p-Toloka
Language : English
Default : Yes
Forced : No
Color range : Limited
Color primaries : BT.2020
Transfer characteristics : PQ
Matrix coefficients : BT.2020 non-constant
Mastering display color primaries : Display P3
Mastering display luminance : min: 0.0001 cd/m2, max: 1000 cd/m2
Maximum Content Light Level : 233 cd/m2
Maximum Frame-Average Light Level : 63 cd/m2

Audio #1
ID : 2
Format : AC-3
Format/Info : Audio Coding 3
Commercial name : Dolby Digital
Codec ID : A_AC3
Duration : 2 h 1 min
Bit rate mode : Constant
Bit rate : 448 kb/s
Channel(s) : 6 channels
Channel layout : L R C LFE Ls Rs
Sampling rate : 48.0 kHz
Frame rate : 31.250 FPS (1536 SPF)
Bit depth : 16 bits
Compression mode : Lossy
Stream size : 391 MiB (1%)
Title : Dub
Language : Ukrainian
Service kind : Complete Main
Default : Yes
Forced : No

Audio #2
ID : 3
Format : MLP FBA 16-ch
Format/Info : Meridian Lossless Packing FBA with 16-channel presentation
Commercial name : Dolby TrueHD with Dolby Atmos
Codec ID : A_TRUEHD
Duration : 2 h 1 min
Bit rate mode : Variable
Bit rate : 5 013 kb/s
Channel(s) : 8 channels
Channel layout : L R C LFE Ls Rs Lb Rb
Sampling rate : 48.0 kHz
Frame rate : 1 200.000 FPS (40 SPF)
Compression mode : Lossless
Stream size : 4.30 GiB (11%)
Language : English
Default : No
Forced : No
Number of dynamic objects : 13
Bed channel count : 1 channel
Bed channel configuration : LFE

Audio #3
ID : 4
Format : AC-3
Format/Info : Audio Coding 3
Commercial name : Dolby Digital
Codec ID : A_AC3
Duration : 2 h 1 min
Bit rate mode : Constant
Bit rate : 640 kb/s
Channel(s) : 6 channels
Channel layout : L R C LFE Ls Rs
Sampling rate : 48.0 kHz
Frame rate : 31.250 FPS (1536 SPF)
Bit depth : 16 bits
Compression mode : Lossy
Stream size : 558 MiB (1%)
Language : English
Service kind : Complete Main
Default : No
Forced : No

Text #1
ID : 5
Format : UTF-8
Codec ID : S_TEXT/UTF8
Codec ID/Info : UTF-8 Plain Text
Duration : 2 h 1 min
Bit rate : 48 b/s
Count of elements : 1254
Stream size : 43.4 KiB (0%)
Title : full
Language : Ukrainian
Default : Yes
Forced : No

Text #2
ID : 6
Format : UTF-8
Codec ID : S_TEXT/UTF8
Codec ID/Info : UTF-8 Plain Text
Duration : 1 h 55 min
Bit rate : 41 b/s
Count of elements : 1347
Stream size : 34.9 KiB (0%)
Title : full
Language : English
Default : No
Forced : No

Text #3
ID : 7
Format : UTF-8
Codec ID : S_TEXT/UTF8
Codec ID/Info : UTF-8 Plain Text
Duration : 1 h 56 min
Bit rate : 46 b/s
Count of elements : 1590
Stream size : 39.5 KiB (0%)
Title : SDH
Language : English
Default : No
Forced : No

Menu
00:00:00.000 : en:00:00:00.000
00:03:28.625 : en:00:03:28.625
00:07:51.680 : en:00:07:51.680
00:10:07.982 : en:00:10:07.982
00:13:06.703 : en:00:13:06.703
00:15:06.739 : en:00:15:06.739
00:18:04.542 : en:00:18:04.542
00:22:58.711 : en:00:22:58.711
00:25:35.325 : en:00:25:35.325
00:31:40.899 : en:00:31:40.899
00:33:29.216 : en:00:33:29.216
00:36:32.816 : en:00:36:32.816
00:38:30.892 : en:00:38:30.892
00:42:05.481 : en:00:42:05.481
00:45:58.214 : en:00:45:58.214
00:48:31.450 : en:00:48:31.450
00:52:57.007 : en:00:52:57.007
00:55:14.353 : en:00:55:14.353
01:00:39.761 : en:01:00:39.761
01:02:56.564 : en:01:02:56.564
01:05:16.788 : en:01:05:16.788
01:10:50.496 : en:01:10:50.496
01:13:37.288 : en:01:13:37.288
01:16:35.216 : en:01:16:35.216
01:18:52.227 : en:01:18:52.227
01:22:48.297 : en:01:22:48.297
01:24:55.340 : en:01:24:55.340
01:28:25.217 : en:01:28:25.217
01:33:18.551 : en:01:33:18.551
01:36:08.763 : en:01:36:08.763
01:41:54.692 : en:01:41:54.692
01:45:23.442 : en:01:45:23.442
01:48:16.490 : en:01:48:16.490
01:51:43.655 : en:01:51:43.655
01:54:43.668 : en:01:54:43.668
01:56:51.504 : en:01:56:51.504
Скріншоти:








Джерело: &


Золотий реліз (завантажене не впливає на рейтинг)
 Трекер:    Зареєстрований   

Завантажити / скачати фільм українською



відео для новачків



 Зареєстрований:   2019-07-14 15:10
 Розмір:   40.52 GB 
 Оцінка фільму:   9.7/10 (Голосів: 16)
   
Інші релізи
   Аліта: Бойовий ангел / Alita: Battle Angel (2019) 1080p H.265 Ukr/Eng | Sub Ukr/Eng -Star-Lord-  16 / 2   8.86 GB   2019-07-17 19:20 
   Аліта: Бойовий ангел / Alita: Battle Angel (2019) UHD 4K 2160p HDR x265 Ukr/Eng | Sub Eng Babamin  12 / 4   16.22 GB   2019-07-17 18:43 
   Аліта: Бойовий ангел / Alita: Battle Angel (2019) 1080p 3D [Half SideBySide] Ukr/Eng | Sub Ukr/Eng дядя1111  7 / 1   13.17 GB   2019-07-16 11:29 
   Аліта: Бойовий ангел / Alita: Battle Angel (2019) Ukr/Eng antik_2008  42 / 1   2.48 GB   2019-07-15 13:33 
   Аліта: Бойовий ангел / Alita: Battle Angel (2019) [Open Matte] Ukr/Eng antik_2008  6 / 0   2.47 GB   2019-07-15 13:05 
   Аліта: Бойовий ангел / Alita: Battle Angel (2019) 1080p Ukr/Eng | Sub Ukr/Eng staf777  90 / 7   7.38 GB   2019-07-14 22:44 
   Аліта: Бойовий ангел / Alita: Battle Angel (2019) [Open Matte] AVC Ukr/Eng | Sub Ukr/Eng 11FrYkT  10 / 0   3.67 GB   2019-07-14 21:15 
   Аліта: Бойовий ангел / Alita: Battle Angel (2019) Remux 1080p Ukr/Eng | Sub Ukr/Eng staf777  50 / 4   24.6 GB   2019-07-14 21:06 
   Аліта: Бойовий ангел / Alita: Battle Angel (2019) 1080p [Open Matte] Ukr/Eng | Sub Ukr/Eng igor911  39 / 2   7.46 GB   2019-07-14 16:53 
   Аліта: Бойовий ангел / Alita: Battle Angel (2019) AVC Ukr/Eng | Sub Ukr/Eng 11FrYkT  113 / 11   2.4 GB   2019-07-14 14:17 
   Аліта: Бойовий ангел / Alita: Battle Angel (2019) 720p Ukr/Eng | Sub Ukr/Eng 11FrYkT  62 / 2   5.41 GB   2019-07-14 13:45 
   Аліта: Бойовий ангел / Alita: Battle Angel (2019) igor911  42 / 2   1.45 GB   2019-07-14 13:17 
ngxwinger 
Частий відвідувач


З нами з: 19.01.14
Востаннє: 19.07.19
Повідомлень: 42

2019-07-15 03:08  
Дуже сподобався фільм, є бажання переглянути знову, навіть не очікував такого після трейлеру, хоча і був зацікавлений.
romango1976 
Новенький


З нами з: 20.01.16
Востаннє: 15.07.19
Повідомлень: 4

2019-07-15 13:58  
Яким програвачем переглянути отакенне 40-кагігове "диво"?
Скеруйте енібаді будь-ласка ))
ПееС: Завантажив і роздаю, сам переглянути не можу.

Потрібен був кодек H.265. Знайшов і завантажив без реєстрації звідси :
https://biblprog.org.ua/ua/k_lite_mega_codec_pack/download/

bbuzzy 
Частий відвідувач


З нами з: 18.12.09
Востаннє: 18.07.19
Повідомлень: 42

2019-07-15 19:41  
romango1976
potplayer або PowerDVD v15

перший як на мене кращий, бiльше налаштувань.

ngxwinger 
Частий відвідувач


З нами з: 19.01.14
Востаннє: 19.07.19
Повідомлень: 42

2019-07-15 22:19  
PotPlayer репак від @7sh3 грає з ходу не лише відео з HDR, але ще й має вбудований функціонал від SVP (smooth video project), тобто дозволяє грати контент 24 кадри в секунду як контент 60 кадрів в секунду, тобто відео виглядає більш плавним при програванні. Вмикається\вимикається одним кліком мишки в самому плеєрі.
Сам раніше користувався лише MPC HC та PowerDVD 17, 18 для HDR контенту, проте як відкрив для себе PotPlayer, то інші не запускаю.

Ваш часовий пояс: GMT + 2 Години

Нова тема   Відповісти