Аліта: Бойовий ангел / Alita: Battle Angel (2019) 1080p [Open Matte] Ukr/Eng | Sub Ukr/Eng

Нові коментарі

Нова тема   Відповісти
Автор Повідомлення
Anonymous 







2019-07-14 14:52  
Аліта: Бойовий ангел / Alita: Battle Angel (2019) 1080p [Open Matte] Ukr/Eng | Sub Ukr/Eng


Усі українські постери:







Жанр: фантастика, бойовик, трилер, пригодницький
Країна: США



Кінокомпанія: Twentieth Century Fox, Lightstorm Entertainment, Troublemaker Studios
Режисер: Роберт Родрігес
Актори: Роза Салазар, Крістоф Вальц, Дженніфер Коннеллі, Махершала Алі, Ед Скрейн, Джекі Ерл Хейлі, Хорхе Лендеборг мол., Лана Кондор

Сюжет:
XXVI століття. На планеті Земля багатії живуть у Небесному місті, бідні люди задовольняються життям у Нижньому місті, куди скидаються всі відходи та сміття. Одного разу в купі металобрухту Нижнього міста вчений знаходить частини жінки-кіборга і повертає її до життя. Прийшовши до тями, кіборг виявляє, що з її пам'яті стерто все, окрім бойових прийомів. Відтепер вона повинна знайти загублені спогади і з'ясувати, хто її відправив на звалище
Офіційні українські трейлери та відео:

Офіційне відео #1


Офіційний український трейлер


Офіційне відео #2


Офіційний український трейлер #2


Офіційний український трейлер #3


Переслідування

Рейтинг MPAA: PG-13 - дітям до 13 років перегляд не бажаний
Вікова категорія: 12+

Тривалість: 02:02:04
Якість: 1080p [Open Matte]

Відео:
кодек:
розмір кадру: 1920x1080
бітрейт: 7654 кб/с

Аудіо # 1:
мова: українська
переклад: професійний дубльований | студія Postmodern
кодек: 5.1
бітрейт: 448 кб/с

Аудіо # 2:
мова: англійська
переклад: оригінал
кодек: 5.1
бітрейт: 640 кб/с

Субтитри # 1-2 :
мова: українська (форсовані, повні)
тип: програмні (м'які)
формат: *.srt

Субтитри # 3-4 :
мова: англійська (повні, SDH)
тип: програмні (м'які)
формат: *.srt

Збережено оригінальні розділи
Info
Код:
Complete name               : Alita. Battle Angel [Open Matte] (2019) [Ukr,Eng sub.Ukr,Eng] 1080p [Hurtom].
Format                      :
Format version              : Version 4
File size                   : 7.46 GiB
Duration                    : 2 h 2 min
Overall bit rate            : 8 744 kb/s
Movie name                  : Аліта: Бойовий ангел / Alita: Battle Angel [Open Matte] (2019) [Ukr,Eng sub.Ukr,Eng] 1080p [Hurtom]
Encoded date                : UTC 2019-07-14 13:09:54
Writing application         : v35.0.0 ('All The Love In The World') 64-bit
Writing library             : libebml v1.3.9 + v1.5.2
Cover                       : Yes
Attachments                 : cover.jpg

Video
ID                          : 1
Format                      : AVC
Format/Info                 : Advanced Video Codec
Format profile              : [email protected]
Format settings             : CABAC / 2 Ref Frames
Format settings, CABAC      : Yes
Format settings, Reference  : 2 frames
Codec ID                    : V_MPEG4/ISO/AVC
Duration                    : 2 h 2 min
Bit rate                    : 7 654 kb/s
Width                       : 1 920 pixels
Height                      : 1 080 pixels
Display aspect ratio        : 16:9
Frame rate mode             : Constant
Frame rate                  : 23.976 (24000/1001) FPS
Color space                 : YUV
Chroma subsampling          : 4:2:0
Bit depth                   : 8 bits
Scan type                   : Progressive
Bits/(Pixel*Frame)          : 0.154
Stream size                 : 6.53 GiB (88%)
Title                       : Аліта: Бойовий ангел / Alita: Battle Angel (2019) 1080p [Open Matte]
Language                    : English
Default                     : Yes
Forced                      : No
Color range                 : Limited
Color primaries             : BT.709
Transfer characteristics    : BT.709
Matrix coefficients         : BT.709

Audio #1
ID                          : 2
Format                      : AC-3
Format/Info                 : Audio Coding 3
Commercial name             : Dolby Digital
Codec ID                    : A_AC3
Duration                    : 2 h 1 min
Bit rate mode               : Constant
Bit rate                    : 448 kb/s
Channel(s)                  : 6 channels
Channel layout              : L R C LFE Ls Rs
Sampling rate               : 48.0 kHz
Frame rate                  : 31.250 FPS (1536 SPF)
Bit depth                   : 16 bits
Compression mode            : Lossy
Stream size                 : 391 MiB (5%)
Title                       : Dub [Postmodern, BluRay] 5.1 448 Kbps
Language                    : Ukrainian
Service kind                : Complete Main
Default                     : Yes
Forced                      : No

Audio #2
ID                          : 3
Format                      : AC-3
Format/Info                 : Audio Coding 3
Commercial name             : Dolby Digital
Codec ID                    : A_AC3
Duration                    : 2 h 1 min
Bit rate mode               : Constant
Bit rate                    : 640 kb/s
Channel(s)                  : 6 channels
Channel layout              : L R C LFE Ls Rs
Sampling rate               : 48.0 kHz
Frame rate                  : 31.250 FPS (1536 SPF)
Bit depth                   : 16 bits
Compression mode            : Lossy
Stream size                 : 558 MiB (7%)
Title                       : Oriignal, 5.1 640 Kbps
Language                    : English
Service kind                : Complete Main
Default                     : No
Forced                      : No

Text #1
ID                          : 4
Format                      : UTF-8
Codec ID                    : S_TEXT/UTF8
Codec ID/Info               : UTF-8 Plain Text
Duration                    : 2 h 1 min
Bit rate                    : 0 b/s
Count of elements           : 7
Stream size                 : 294 Bytes (0%)
Title                       : Ukr Forced [Hurtom]
Language                    : Ukrainian
Default                     : Yes
Forced                      : Yes

Text #2
ID                          : 5
Format                      : UTF-8
Codec ID                    : S_TEXT/UTF8
Codec ID/Info               : UTF-8 Plain Text
Duration                    : 2 h 1 min
Bit rate                    : 48 b/s
Count of elements           : 1255
Stream size                 : 43.4 KiB (0%)
Title                       : Ukr Full [BluRay]
Language                    : Ukrainian
Default                     : No
Forced                      : No

Text #3
ID                          : 6
Format                      : UTF-8
Codec ID                    : S_TEXT/UTF8
Codec ID/Info               : UTF-8 Plain Text
Duration                    : 1 h 55 min
Bit rate                    : 41 b/s
Count of elements           : 1347
Stream size                 : 34.9 KiB (0%)
Title                       : Full
Language                    : English
Default                     : No
Forced                      : No

Text #4
ID                          : 7
Format                      : UTF-8
Codec ID                    : S_TEXT/UTF8
Codec ID/Info               : UTF-8 Plain Text
Duration                    : 1 h 55 min
Bit rate                    : 46 b/s
Count of elements           : 1588
Stream size                 : 39.4 KiB (0%)
Title                       : SDH
Language                    : English
Default                     : No
Forced                      : No

Menu
00:00:00.000                : en:Scene 1
00:00:27.000                : en:Scene 2
00:05:23.000                : en:Scene 3
00:13:08.000                : en:Scene 4
00:18:06.000                : en:Scene 5
00:23:00.000                : en:Scene 6
00:25:40.000                : en:Scene 7
00:33:30.000                : en:Scene 8
00:36:34.000                : en:Scene 9
00:37:47.000                : en:Scene 10
00:38:32.000                : en:Scene 11
00:41:07.000                : en:Scene 12
00:45:59.000                : en:Scene 13
00:48:32.000                : en:Scene 14
00:52:58.000                : en:Scene 15
00:55:16.000                : en:Scene 16
01:02:58.000                : en:Scene 17
01:10:24.000                : en:Scene 18
01:16:36.000                : en:Scene 19
01:18:53.000                : en:Scene 20
01:22:50.000                : en:Scene 21
01:24:57.000                : en:Scene 22
01:28:26.000                : en:Scene 23
01:36:10.000                : en:Scene 24
01:38:42.000                : en:Scene 25
01:43:29.000                : en:Scene 26
01:44:46.000                : en:Scene 27
01:51:45.000                : en:Scene 28
01:54:31.000                : en:Scene 29
01:56:53.000                : en:Scene 30
01:56:56.000                : en:Scene 31



Джерело: &
Подяка за перші два постера п.Ham_R. Компіляція форсованих субтитрів: igor911.


 Трекер:    Зареєстрований   

Завантажити / скачати фільм українською



відео для новачків



 Зареєстрований:   2019-07-14 16:53
 Розмір:   7.46 GB 
 Оцінка фільму:   9.4/10 (Голосів: 14)
 ЗАЛИШАЙТЕСЬ ЯКОМОГА ДОВШЕ НА РОЗДАЧІ! ЗАВАНТАЖИВ САМ - ДАЙ ЗАВАНТАЖИТИ ІНШИМ!
   
Інші релізи
   Аліта: Бойовий ангел / Alita: Battle Angel (2019) 1080p H.265 Ukr/Eng | Sub Ukr/Eng -Star-Lord-  16 / 2   8.86 GB   2019-07-17 19:20 
   Аліта: Бойовий ангел / Alita: Battle Angel (2019) UHD 4K 2160p HDR x265 Ukr/Eng | Sub Eng Babamin  12 / 4   16.22 GB   2019-07-17 18:43 
   Аліта: Бойовий ангел / Alita: Battle Angel (2019) 1080p 3D [Half SideBySide] Ukr/Eng | Sub Ukr/Eng дядя1111  7 / 2   13.17 GB   2019-07-16 11:29 
   Аліта: Бойовий ангел / Alita: Battle Angel (2019) Ukr/Eng antik_2008  41 / 1   2.48 GB   2019-07-15 13:33 
   Аліта: Бойовий ангел / Alita: Battle Angel (2019) [Open Matte] Ukr/Eng antik_2008  6 / 0   2.47 GB   2019-07-15 13:05 
   Аліта: Бойовий ангел / Alita: Battle Angel (2019) 1080p Ukr/Eng | Sub Ukr/Eng staf777  92 / 6   7.38 GB   2019-07-14 22:44 
   Аліта: Бойовий ангел / Alita: Battle Angel (2019) [Open Matte] AVC Ukr/Eng | Sub Ukr/Eng 11FrYkT  10 / 0   3.67 GB   2019-07-14 21:15 
   Аліта: Бойовий ангел / Alita: Battle Angel (2019) Remux 1080p Ukr/Eng | Sub Ukr/Eng staf777  49 / 4   24.6 GB   2019-07-14 21:06 
   Аліта: Бойовий ангел / Alita: Battle Angel (2019) UHD Remux 4K 2160p HDR H.265 Ukr/Eng | Sub Ukr/Eng Babamin  39 / 0   40.52 GB   2019-07-14 15:10 
   Аліта: Бойовий ангел / Alita: Battle Angel (2019) AVC Ukr/Eng | Sub Ukr/Eng 11FrYkT  112 / 11   2.4 GB   2019-07-14 14:17 
   Аліта: Бойовий ангел / Alita: Battle Angel (2019) 720p Ukr/Eng | Sub Ukr/Eng 11FrYkT  62 / 3   5.41 GB   2019-07-14 13:45 
   Аліта: Бойовий ангел / Alita: Battle Angel (2019) igor911  43 / 2   1.45 GB   2019-07-14 13:17 
Anonymous 







2019-07-14 16:55  
Реліз готовий до завантаження.
povudlo 
Новенький


З нами з: 17.09.14
Востаннє: 19.07.19
Повідомлень: 12

2019-07-14 17:58  
? Тут картинка не сипеться в динамічних сценах як в попередніх релізах?
Anonymous 







2019-07-14 18:00  
povudlo, ні не сипеться, відео з іншого джерела.

Додано через 47 секунд:

6й скріншот, де Аліта на мотоциклі - якраз з динамічної сцени.

lossantos 
Новенький


З нами з: 26.11.10
Востаннє: 18.07.19
Повідомлень: 3

2019-07-14 19:34  
Це реальный Open Matte чи обрізана версія ?

UPD: знайшов таке порівняння http://piccy.info/view3/13284967/64aa2ec3be866d602164652b89cb1b8d/

ziben 
Новенький


З нами з: 18.08.15
Востаннє: 18.07.19
Повідомлень: 8

2019-07-14 19:39  
в 4к буде? бо те що э то там картинка мазана!
Anonymous 







2019-07-14 22:43  
lossantos написано:
UPD: знайшов таке порівняння

дякую, отже наповнення кадру суттєво більше в Open Matte - більше додано згори/знизу, ніж обрізано з боків.
ziben написано:
в 4к буде?

з обіду роздається 4к ремукс, див. спойлер "Інші релізи"

woled 
Частий відвідувач


З нами з: 01.06.17
Востаннє: 16.07.19
Повідомлень: 28

2019-07-15 21:10  
Ідеально, обожнюю такі фільми!!! 10/10
Якщо знаєте подібні то підкажіть будь ласка!!!

Ваш часовий пояс: GMT + 2 Години

Нова тема   Відповісти