Чорне Дзеркало (Сезон 4) / Black Mirror (Season 4) (2017) 1080p Ukr/Eng | Sub Ukr/Eng

Нові коментарі

Нова тема   Відповісти
Автор Повідомлення
Argentum 
Поважний учасник


З нами з: 25.09.11
Востаннє: 19.07.19
Повідомлень: 205

2019-07-14 14:18  
Чорне Дзеркало (Сезон 4) / Black Mirror (Season 4) (2017) 1080p Ukr/Eng | Sub Ukr/Eng

Чорне Дзеркало (Сезон 4) / Black Mirror (Season 4) (2017) 1080p Ukr/Eng | Sub Ukr/Eng


Жанр: фантастика, трилер, драма
Країна: Велика Британія, США



Кінокомпанія: Zeppotron, Channel 4, Netflix
Режисер: Чарлі Брукер
Актори: Джессі Племонс, Розмарі Девітт, Андреа Райзборо, Джорджина Кемпбелл, Максін Пік, Дуґлас Годж та інші.

Сюжет:
Британський фантастичний телесеріал, створений за сценарієм Чарлі Брукера. Серії не пов'язані між собою ні сюжетом, ні акторами, ні часом або місцем. За словами Брукера, всі сюжети об'єднує лише сатира на той образ життя, що поширений в сучасному суспільстві. Наскрізна тема - вплив інформаційних технологій на людські відносини.


Тривалість: 1 серія: 60:00 (цілком серій: 6)
Перелік серій
S04E01. "USS Callister"
S04E02. "Arkangel"
S04E03. ''Crocodile"
S04E04. "Hang the DJ"
S04E05. "Metalhead"
S04E06. "Black Museum"
Якість:
Відео:
кодек:
розмір кадру: 1920 х 1080
бітрейт: 8500 - 11500 кб/с

Аудіо # 1:
мова: українська
переклад: одноголосий закадровий | Дмитро Кравченко (Done56)
кодек: 5.1/*2.0
бітрейт: 448/*192 кб/с
* 6 серія.

Аудіо # 2:
мова: англійська
переклад: оригінал
кодек: 5.1
бітрейт: 384 кб/с

Субтитри # 1:
мова: українська
тип: програмні (м'які)
формат: *.srt
переклад: krigg070

Субтитри # 2:
мова: англійська
тип: програмні (м'які)
формат: *.srt
Info
General
Unique ID : 6161202533646271619871114562543374467 (0x4A29ABCED54C9FFF1875FE4833D5083)
Complete name : Black.Mirror.S04E01.(2017).[Ukr,Eng]..1080p.
Format :
Format version : Version 4
File size : 6.01 GiB
Duration : 1 h 16 min
Overall bit rate : 11.2 Mb/s
Movie name : S04E01. "USS Callister"
Encoded date : UTC 2019-07-08 12:06:54
Writing application : v35.0.0 ('All The Love In The World') 64-bit
Writing library : libebml v1.3.9 + v1.5.2

Video
ID : 1
Format : AVC
Format/Info : Advanced Video Codec
Format profile : [email protected]
Format settings : CABAC / 4 Ref Frames
Format settings, CABAC : Yes
Format settings, Reference : 4 frames
Codec ID : V_MPEG4/ISO/AVC
Duration : 1 h 16 min
Bit rate : 10.4 Mb/s
Width : 1 920 pixels
Height : 1 080 pixels
Display aspect ratio : 16:9
Frame rate mode : Constant
Frame rate : 25.000 FPS
Color space : YUV
Chroma subsampling : 4:2:0
Bit depth : 8 bits
Scan type : Progressive
Bits/(Pixel*Frame) : 0.200
Stream size : 5.56 GiB (93%)
Title : AVC 1920*1080 @ 10.4 Mb/s
Writing library : core 152 r2851 ba24899
Encoding settings : cabac=1 / ref=4 / deblock=1:-3:-3 / analyse=0x3:0x133 / me=umh / subme=11 / psy=1 / psy_rd=1.05:0.00 / mixed_ref=1 / me_range=64 / chroma_me=1 / trellis=2 / 8x8dct=1 / cqm=0 / deadzone=21,11 / fast_pskip=0 / chroma_qp_offset=-2 / threads=12 / lookahead_threads=3 / sliced_threads=0 / nr=0 / decimate=0 / interlaced=0 / bluray_compat=0 / constrained_intra=0 / bframes=16 / b_pyramid=2 / b_adapt=2 / b_bias=0 / direct=3 / weightb=1 / open_gop=0 / weightp=2 / keyint=250 / keyint_min=25 / scenecut=40 / intra_refresh=0 / rc=crf / mbtree=0 / crf=17.5 / qcomp=0.65 / qpmin=0 / qpmax=69 / qpstep=4 / ip_ratio=1.40 / pb_ratio=1.20 / aq=3:0.85
Language : Multiple languages
Default : Yes
Forced : Yes

Audio #1
ID : 2
Format : AC-3
Format/Info : Audio Coding 3
Commercial name : Dolby Digital
Codec ID : A_AC3
Duration : 1 h 16 min
Bit rate mode : Constant
Bit rate : 448 kb/s
Channel(s) : 6 channels
Channel layout : L R C LFE Ls Rs
Sampling rate : 48.0 kHz
Frame rate : 31.250 FPS (1536 SPF)
Bit depth : 16 bits
Compression mode : Lossy
Stream size : 246 MiB (4%)
Title : AC-3 5.1 @ 448 kb/s
Language : Ukrainian
Service kind : Complete Main
Default : Yes
Forced : Yes

Audio #2
ID : 3
Format : AC-3
Format/Info : Audio Coding 3
Commercial name : Dolby Digital
Codec ID : A_AC3
Duration : 1 h 16 min
Bit rate mode : Constant
Bit rate : 384 kb/s
Channel(s) : 6 channels
Channel layout : L R C LFE Ls Rs
Sampling rate : 48.0 kHz
Frame rate : 31.250 FPS (1536 SPF)
Bit depth : 16 bits
Compression mode : Lossy
Stream size : 210 MiB (3%)
Title : AC-3 5.1 @ 384 kb/s
Language : English
Service kind : Complete Main
Default : No
Forced : No

Text #1
ID : 4
Format : UTF-8
Codec ID : S_TEXT/UTF8
Codec ID/Info : UTF-8 Plain Text
Duration : 1 h 14 min
Bit rate : 99 b/s
Count of elements : 957
Stream size : 53.9 KiB (0%)
Language : Ukrainian
Default : No
Forced : No

Text #2
ID : 5
Format : UTF-8
Codec ID : S_TEXT/UTF8
Codec ID/Info : UTF-8 Plain Text
Duration : 1 h 14 min
Bit rate : 71 b/s
Count of elements : 1179
Stream size : 38.7 KiB (0%)
Title : SDH
Language : English
Default : No
Forced : No
Скріншоти







Джерело: &
Особиста оцінка: 8 - мені сподобалося



Золотий реліз (завантажене не впливає на рейтинг)
 Трекер:    Зареєстрований   

Завантажити / скачати серіал українською



відео для новачків



 Зареєстрований:   2019-07-14 14:39
 Розмір:   25.5 GB 
 Оцінка серіалу:   10/10 (Голосів: 1)
   
Ваш часовий пояс: GMT + 2 Години

Нова тема   Відповісти