Фантастичні звірі: Злочини Ґріндельвальда / Fantastic Beasts: The Crimes of Grindelwald (2018) Ukr/Eng | Sub Eng

Нові коментарі

Нова тема   Відповісти
Автор Повідомлення
Anonymous 







2019-07-14 12:29  
Фантастичні звірі: Злочини Ґріндельвальда / Fantastic Beasts: The Crimes of Grindelwald (2018) Ukr/Eng | Sub Eng

Фантастичні звірі: Злочини Ґріндельвальда / Fantastic Beasts: The Crimes of Grindelwald (2018) Ukr/Eng | Sub Eng
Альтернативний постер:



Жанр: фентезі, пригодницький, сімейний
Країна: Велика Британія, США



Кінокомпанія: Warner Bros. Pictures, Heyday Films
Режисер: Девід Єйтс
Актори: Едді Редмейн, Кетрін Вотерстон, Ден Фоґлер, Елісон Судол, Езра Міллер, Джуд Лоу, Джонні Депп, Зоі Кравіц, Клаудія Кім, Каллум Тернер

Сюжет:
Наймогутніший лихий чарівник Ґріндельвальд (Джонні Депп), якого ледь змогли полонити у першій частині, тікає з магічної в'язниці і збирає своїх прихильників - тих, хто вважає чарівників вищим класом, ніж нечакли (маґли). Єдиний, хто може зупинити його, це Албус Дамблдор (Джуд Лоу). Раніше вони були друзями, але тепер опинились по різні боки барикад. Дамблдору не впоратися самотужки, тож він вирішує заручитися підтримкою свого колишнього учня Ньюта Скамандера (Едді Редмейн). Захоплююча пригода знову об'єднає Ньюта з Тіною, Квіні з Якобом та випробує їхню вірність одне одному.
Цікаві факти

- Створений на основі однойменної книги Джоан Роулінґ.
- Джонні Депп погодився на участь у фільмі, навіть не читаючи сценарій. Актор заявив, що є давнім і гарячим шанувальником творів Джоан Роулінґ.
- Бюджет фільму становить приблизно $200 000 000.
- Касові збори фільму склали: $653 355 901 всього, з них $159 555 901 у США.
- У жовтні 2016 року Роулінґ підтвердила, що серія складатиметься з п'яти фільмів.
- Третій фільм мав вийти у листопаді 2020 році, але швидше за все буде перенесений ще мінімум на півроку, оскільки студія попросила Джоан Роулінґ виправити сценарій.
Офіційні українські тизер та трейлери:

тизер:


фінальний трейлер:


Офіційний трейлер з Comic Con:


прикол:

Рейтинг MPAA: PG-13 - дітям до 13 років перегляд не бажаний
Вікова категорія: 12+

Тривалість: 02:13:50
Якість:

Відео:
кодек:
розмір кадру: 720 x 304
бітрейт: 1546 кб/с

Аудіо # 1:
мова: українська
переклад: професійний дубльований | студія Postmodern
кодек: 5.1
бітрейт: 384 кб/с
Інформація про дубляж
Переклад: Олег Колесніков
Режисер дубляжу: Анна Пащенко
Звукорежисер: Олександр Мостовенко
Керівник дубляжу: Ірина Туловська
Координатор проекту Юлія Кузьменко
Ролі дублювали:
НьютОлександр Погребняк,
Якоб — В'ячеслав Дудко,
Тіна Юлія Перенчук,
ҐріндельвальдАндрій Твердак,
Квіні — Наталія Денисенко,
ДамблдорІван Розін,
КамаДмитро Гаврилов,
Тесей — Олександр Ромашко,
ТреверсОлег Лепенець,
Креденцій — Андрій Соболєв,
Фламель Андрій Альохін,
Наджіні — Ганна Кузіна,
Скендер — Сергій Кияшко,
Банті — Інна Бєлікова,
Грімсон Михайло Кришталь,
Ірма — Валентина Сова,
Роз'є Катерина Брайковська,
Гузман — Євген Сінчуков,
Серафіна Наталя Ярошенко,
Мінерва Макґонеґел — Світлана Шекера,
ПортальнийВолодимир Терещук,
Євлалія — Людмила Петреченко

А також: Катерина Качан, Дмитро Рассказов-Тварковський, Вікторія Хмельницька, Олексій Череватенко, Катерина Башкіна, Павло Голов, Руслан Драполюк, Крістіна Кисельова, B.Ніколенко, Є.Кучеренко, А.Мостренко, В.Музиченко, В.Лук'яненко, Г.Малащинський, Д.Шапкін, К.Чорнокрилюк, О.Гриськова.

Фільм дубльовано компанією Postmodern на замовлення Kinomania.
Аудіо # 2:
мова: англійська
переклад: оригінал
кодек: 5.1
бітрейт: 384 кб/с

Субтитри # 1:
мова: українська (форсовані)
тип: програмні (м'які)
формат: *.srt

Субтитри # 2:
мова: англійська
тип: програмні (м'які)
формат: *.srt
Info:
Код:
General
Complete name               : Fantastic Beasts. The Crimes of Grindelwald (2018) [Ukr,Eng] [Hurtom].avi
Format                      : AVI
Format/Info                 : Audio Video Interleave
Format profile              : OpenDML
File size                   : 2.18 GiB
Duration                    : 2 h 13 min
Overall bit rate            : 2 332 kb/s
Movie name                  : Фантастичні звірі: Злочини Ґріндельвальда / Fantastic Beasts: The Crimes of Grindelwald (2018) [Ukr,Eng] [Hurtom]

Video
ID                          : 0
Format                      : MPEG-4 Visual
Format profile              : Advanced [email protected]
Format settings             : BVOP1 / Custom Matrix
Format settings, BVOP       : 1
Format settings, QPel       : No
Format settings, GMC        : No warppoints
Format settings, Matrix     : Custom
Codec ID                    :
Codec ID/Hint               :
Duration                    : 2 h 13 min
Bit rate                    : 1 546 kb/s
Width                       : 720 pixels
Height                      : 304 pixels
Display aspect ratio        : 2.35:1
Frame rate                  : 23.976 (24000/1001) FPS
Original frame rate         : 23.976 (23976/1000) FPS
Color space                 : YUV
Chroma subsampling          : 4:2:0
Bit depth                   : 8 bits
Scan type                   : Progressive
Compression mode            : Lossy
Bits/(Pixel*Frame)          : 0.295
Stream size                 : 1.45 GiB (66%)
Writing library             : 1.2.1 (UTC 2008-12-04)

Audio #1
ID                          : 1
Format                      : AC-3
Format/Info                 : Audio Coding 3
Commercial name             : Dolby Digital
Codec ID                    : 2000
Duration                    : 2 h 13 min
Bit rate mode               : Constant
Bit rate                    : 384 kb/s
Channel(s)                  : 6 channels
Channel layout              : L R C LFE Ls Rs
Sampling rate               : 48.0 kHz
Frame rate                  : 31.250 FPS (1536 SPF)
Bit depth                   : 16 bits
Compression mode            : Lossy
Stream size                 : 368 MiB (16%)
Alignment                   : Split across interleaves
Interleave, duration        : 42  ms (1.00 video frame)
Interleave, preload duratio : 500  ms
Title                       : UKR DUB [Postmodern, iTunes, 5.1]
Service kind                : Complete Main

Audio #2
ID                          : 2
Format                      : AC-3
Format/Info                 : Audio Coding 3
Commercial name             : Dolby Digital
Codec ID                    : 2000
Duration                    : 2 h 13 min
Bit rate mode               : Constant
Bit rate                    : 384 kb/s
Channel(s)                  : 6 channels
Channel layout              : L R C LFE Ls Rs
Sampling rate               : 48.0 kHz
Frame rate                  : 31.250 FPS (1536 SPF)
Bit depth                   : 16 bits
Compression mode            : Lossy
Stream size                 : 368 MiB (16%)
Alignment                   : Split across interleaves
Interleave, duration        : 42  ms (1.00 video frame)
Interleave, preload duratio : 500  ms
Title                       : ENG [Original]
Service kind                : Complete Main




Джерело: &


 Трекер:    Зареєстрований   

Завантажити / скачати фільм українською



відео для новачків



 Зареєстрований:   2019-07-14 12:29
 Розмір:   2.18 GB 
 Оцінка фільму:   7.7/10 (Голосів: 10)
 ЗАЛИШАЙТЕСЬ ЯКОМОГА ДОВШЕ НА РОЗДАЧІ! ЗАВАНТАЖИВ САМ - ДАЙ ЗАВАНТАЖИТИ ІНШИМ!
   
Ваш часовий пояс: GMT + 2 Години

Нова тема   Відповісти