Аліта: Бойовий ангел / Alita: Battle Angel (2019)

Нові коментарі

Нова тема   Відповісти
Автор Повідомлення
Anonymous 







2019-07-14 09:22  
Аліта: Бойовий ангел / Alita: Battle Angel (2019)


Усі українські постери:







Жанр: бойовик, мелодрама, трилер, фантастика
Країна: США



Кінокомпанія: Twentieth Century Fox, Lightstorm Entertainment, Troublemaker Studios
Режисер: Роберт Родрігес
Актори: Роза Салазар, Крістоф Вальц, Дженніфер Коннеллі, Махершала Алі, Ед Скрейн, Джекі Ерл Хейлі, Хорхе Лендеборг мол., Лана Кондор

Сюжет:
XXVI століття. На планеті Земля багатії живуть у Небесному місті, бідні люди задовольняються життям у Нижньому місті, куди скидаються всі відходи та сміття. Одного разу в купі металобрухту Нижнього міста вчений знаходить частини жінки-кіборга і повертає її до життя. Прийшовши до тями, кіборг виявляє, що з її пам'яті стерто все, окрім бойових прийомів. Відтепер вона повинна знайти загублені спогади і з'ясувати, хто її відправив на звалище
Офіційні українські трейлери та відео:

Офіційне відео #1


Офіційний український трейлер


Офіційне відео #2


Офіційний український трейлер #2


Офіційний український трейлер #3


Переслідування

Рейтинг MPAA: PG-13 - дітям до 13 років перегляд не бажаний
Вікова категорія: 12+

Тривалість: 02:01:57
Якість:

Відео:
кодек:
розмір кадру: 720x304
бітрейт: 1241 кб/с

Аудіо:
мова: українська
переклад: професійний дубльований | студія Postmodern
кодек: 5.1
бітрейт: 448 кб/с
Info
Код:
General
Complete name               : Alita. Battle Angel (2019) [Ukr] [Hurtom].avi
Format                      : AVI
Format/Info                 : Audio Video Interleave
File size                   : 1.45 GiB
Duration                    : 2 h 1 min
Overall bit rate            : 1 698 kb/s
Movie name                  : Аліта: Бойовий ангел / Alita: Battle Angel (2019) [Ukr] [Hurtom]
Writing application         : VirtualDubModUkr 1.5.10.2 (build 2542/release)
Writing library             : VirtualDubMod build 2542/release

Video
ID                          : 0
Format                      : MPEG-4 Visual
Format profile              : Advanced [email protected]
Format settings             : BVOP1 / Custom Matrix
Format settings, BVOP       : 1
Format settings, QPel       : No
Format settings, GMC        : No warppoints
Format settings, Matrix     : Custom
Codec ID                    :
Codec ID/Hint               :
Duration                    : 2 h 1 min
Bit rate                    : 1 241 kb/s
Width                       : 720 pixels
Height                      : 304 pixels
Display aspect ratio        : 2.35:1
Frame rate                  : 23.976 (24000/1001) FPS
Original frame rate         : 23.976 (23976/1000) FPS
Color space                 : YUV
Chroma subsampling          : 4:2:0
Bit depth                   : 8 bits
Scan type                   : Progressive
Compression mode            : Lossy
Bits/(Pixel*Frame)          : 0.236
Stream size                 : 1.06 GiB (73%)
Writing library             : 73

Audio
ID                          : 1
Format                      : AC-3
Format/Info                 : Audio Coding 3
Commercial name             : Dolby Digital
Codec ID                    : 2000
Duration                    : 2 h 1 min
Bit rate mode               : Constant
Bit rate                    : 448 kb/s
Channel(s)                  : 6 channels
Channel layout              : L R C LFE Ls Rs
Sampling rate               : 48.0 kHz
Frame rate                  : 31.250 FPS (1536 SPF)
Bit depth                   : 16 bits
Compression mode            : Lossy
Stream size                 : 391 MiB (26%)
Alignment                   : Split across interleaves
Interleave, duration        : 42  ms (1.00 video frame)
Interleave, preload duratio : 500  ms
Title                       : UKR DUB [BluRay]
Service kind                : Complete Main



Джерело: &
Подяка за перші два постера п.Ham_R.


 Трекер:    Зареєстрований   

Завантажити / скачати фільм українською



відео для новачків



 Зареєстрований:   2019-07-14 13:17
 Розмір:   1.45 GB 
 Оцінка фільму:   9.4/10 (Голосів: 24)
 ЗАЛИШАЙТЕСЬ ЯКОМОГА ДОВШЕ НА РОЗДАЧІ! ЗАВАНТАЖИВ САМ - ДАЙ ЗАВАНТАЖИТИ ІНШИМ!
   
Інші релізи
   Аліта: Бойовий ангел / Alita: Battle Angel (2019) 1080p H.265 Ukr/Eng | Sub Ukr/Eng -Star-Lord-  16 / 2   8.86 GB   2019-07-17 19:20 
   Аліта: Бойовий ангел / Alita: Battle Angel (2019) UHD 4K 2160p HDR x265 Ukr/Eng | Sub Eng Babamin  12 / 4   16.22 GB   2019-07-17 18:43 
   Аліта: Бойовий ангел / Alita: Battle Angel (2019) 1080p 3D [Half SideBySide] Ukr/Eng | Sub Ukr/Eng дядя1111  7 / 2   13.17 GB   2019-07-16 11:29 
   Аліта: Бойовий ангел / Alita: Battle Angel (2019) Ukr/Eng antik_2008  41 / 1   2.48 GB   2019-07-15 13:33 
   Аліта: Бойовий ангел / Alita: Battle Angel (2019) [Open Matte] Ukr/Eng antik_2008  6 / 0   2.47 GB   2019-07-15 13:05 
   Аліта: Бойовий ангел / Alita: Battle Angel (2019) 1080p Ukr/Eng | Sub Ukr/Eng staf777  92 / 6   7.38 GB   2019-07-14 22:44 
   Аліта: Бойовий ангел / Alita: Battle Angel (2019) [Open Matte] AVC Ukr/Eng | Sub Ukr/Eng 11FrYkT  10 / 0   3.67 GB   2019-07-14 21:15 
   Аліта: Бойовий ангел / Alita: Battle Angel (2019) Remux 1080p Ukr/Eng | Sub Ukr/Eng staf777  49 / 4   24.6 GB   2019-07-14 21:06 
   Аліта: Бойовий ангел / Alita: Battle Angel (2019) 1080p [Open Matte] Ukr/Eng | Sub Ukr/Eng igor911  38 / 1   7.46 GB   2019-07-14 16:53 
   Аліта: Бойовий ангел / Alita: Battle Angel (2019) UHD Remux 4K 2160p HDR H.265 Ukr/Eng | Sub Ukr/Eng Babamin  39 / 0   40.52 GB   2019-07-14 15:10 
   Аліта: Бойовий ангел / Alita: Battle Angel (2019) AVC Ukr/Eng | Sub Ukr/Eng 11FrYkT  112 / 11   2.4 GB   2019-07-14 14:17 
   Аліта: Бойовий ангел / Alita: Battle Angel (2019) 720p Ukr/Eng | Sub Ukr/Eng 11FrYkT  62 / 3   5.41 GB   2019-07-14 13:45 
Anonymous 







2019-07-14 13:25  
додав скріншоти
svetka902 
Новенький


З нами з: 29.12.11
Востаннє: 14.07.19
Повідомлень: 22

2019-07-14 23:35  
Свого часу дивилась це аніме сподобалось,фільм також зайшов крепко... Happy
Ваш часовий пояс: GMT + 2 Години

Нова тема   Відповісти