Формула 1. Сезон 2019. Етап 10. Гран-Прі Великої Британії. Кваліфікація (13.07.2019) 720p

Нові коментарі

Нова тема   Відповісти
Автор Повідомлення
sergiyko.5 
VIP


З нами з: 25.02.16
Востаннє: 19.07.19
Повідомлень: 2379

2019-07-13 19:45  
Формула 1. Сезон 2019. Етап 10. Гран-Прі Великої Британії. Кваліфікація (13.07.2019) 720p

Формула 1. Сезон 2019. Етап 10. Гран-Прі Великої Британії. Кваліфікація (13.07.2019) 720p

Жанр: Перегони Формули 1
Країна: Велика Британія
Телеканал: Eleven Sport 1
Коментатор: Максим Подзігун

Опис:
Кваліфікація десятого етапу Гран-Прі Великої Британії 2019 року.


Якість:

Відео:кодек: розмір кадру: 1280 х 720 бітрейт: 4000 кб/с
Аудіо: мова: українська кодек: MP2 2.0 бітрейт: 192 кб/с

Примітка: у відео була реклама два відрізка по 5 хвилин
Тривалість:
01:05:24
Про файл:
General
Unique ID : 171504918936638684325338356243959207615 (0x8106A559A2AA248621098C41642D56BF)
Complete name : F:\Torrents2\SPORT\Formula 1\F1.2019.Qualifying\F1.2019.10.Britain.Qualifying.720p..Ukr.Pol.
Format :
Format version : Version 4
File size : 1.77 GiB
Duration : 1 h 5 min
Overall bit rate : 3 856 kb/s
Encoded date : UTC 2019-07-13 16:42:08
Writing application : v35.0.0 ('All The Love In The World') 64-bit
Writing library : libebml v1.3.9 + v1.5.2

Video
ID : 1
Format : AVC
Format/Info : Advanced Video Codec
Format profile : [email protected]
Format settings : CABAC / 3 Ref Frames
Format settings, CABAC : Yes
Format settings, Reference : 3 frames
Codec ID : V_MPEG4/ISO/AVC
Duration : 1 h 5 min
Bit rate : 3 500 kb/s
Width : 1 280 pixels
Height : 720 pixels
Display aspect ratio : 16:9
Frame rate mode : Constant
Frame rate : 50.000 FPS
Color space : YUV
Chroma subsampling : 4:2:0
Bit depth : 8 bits
Scan type : Progressive
Bits/(Pixel*Frame) : 0.076
Stream size : 1.60 GiB (91%)
Language : English
Default : Yes
Forced : No

Audio #1
ID : 2
Format : MPEG Audio
Format version : Version 1
Format profile : Layer 2
Codec ID : A_MPEG/L2
Codec ID/Hint : MP2
Duration : 1 h 5 min
Bit rate mode : Constant
Bit rate : 192 kb/s
Channel(s) : 2 channels
Sampling rate : 48.0 kHz
Frame rate : 41.667 FPS (1152 SPF)
Compression mode : Lossy
Stream size : 90.1 MiB (5%)
Language : Ukrainian
Default : Yes
Forced : Yes

Audio #2
ID : 3
Format : AC-3
Format/Info : Audio Coding 3
Commercial name : Dolby Digital
Codec ID : A_AC3
Duration : 1 h 5 min
Bit rate mode : Constant
Bit rate : 160 kb/s
Channel(s) : 2 channels
Channel layout : L R
Sampling rate : 48.0 kHz
Frame rate : 31.250 FPS (1536 SPF)
Bit depth : 16 bits
Compression mode : Lossy
Delay relative to video : 16 ms
Stream size : 75.0 MiB (4%)
Language : Polish
Service kind : Complete Main
Default : No
Forced : No
Скріншоти:


Зведення: sergiyko


 Трекер:    Зареєстрований   

Завантажити / скачати торрент



відео для новачків



 Зареєстрований:   2019-07-13 19:45
 Розмір:   1.77 GB 
 Оцінка:   10/10 (Голосів: 4)
   
Umbrella.Corps 
Попереджень: 1
Попереджень: 1 


З нами з: 09.04.17
Востаннє: 15.07.19
Повідомлень: 53

2019-07-13 21:16  
а Подзігун вже роздає свої відосики?)
bugmenotbugmenot 
Новенький


З нами з: 17.12.16
Востаннє: 15.07.19
Повідомлень: 3

2019-07-14 15:42  
виключно за донати Happy
Ваш часовий пояс: GMT + 2 Години

Нова тема   Відповісти