Формула 1. Сезон 2019. Етап 10. Гран-Прі Великої Британії. Кваліфікація (13.07.2019) IPTV 1080p

Нові коментарі

Нова тема   Відповісти
Автор Повідомлення
sergiyko.5 
VIP


З нами з: 25.02.16
Востаннє: 19.07.19
Повідомлень: 2379

2019-07-13 18:53  
Формула 1. Сезон 2019. Етап 10. Гран-Прі Великої Британії. Кваліфікація (13.07.2019) IPTV 1080p

Формула 1. Сезон 2019. Етап 10. Гран-Прі Великої Британії. Кваліфікація (13.07.2019) IPTV 1080p

Жанр: Перегони Формули 1
Країна: Велика Британія
Телеканал: Setanta Sport
Коментатор: Максим Подзігун

Опис:
Кваліфікація десятого етапу Гран-Прі Великої Британії 2019 року.


Якість: IPTV

Відео:кодек: розмір кадру: 1280 х 720 бітрейт: 4000 кб/с
Аудіо: мова: українська кодек: MP2 2.0 бітрейт: 192 кб/с
Тривалість:
01:14:24
Про файл:
General
Unique ID : 103186655756090871572907033143072983533 (0x4DA106EAA9E5A56C6F6181EE742F09ED)
Complete name : F:\Torrents2\SPORT\Formula 1\F1.2019.Qualifying\F1.2019.10.Britain.Qualifying.1080p.IPTV.Ukr.
Format :
Format version : Version 4
File size : 3.04 GiB
Duration : 1 h 14 min
Overall bit rate mode : Variable
Overall bit rate : 5 848 kb/s
Encoded date : UTC 2019-07-13 15:46:43
Writing application : v35.0.0 ('All The Love In The World') 64-bit
Writing library : libebml v1.3.9 + v1.5.2

Video
ID : 1
Format : AVC
Format/Info : Advanced Video Codec
Format profile : [email protected]
Format settings : CABAC / 2 Ref Frames
Format settings, CABAC : Yes
Format settings, Reference : 2 frames
Codec ID : V_MPEG4/ISO/AVC
Duration : 1 h 14 min
Bit rate mode : Variable
Bit rate : 5 654 kb/s
Maximum bit rate : 6 000 kb/s
Width : 1 920 pixels
Height : 1 080 pixels
Display aspect ratio : 16:9
Frame rate mode : Constant
Frame rate : 25.000 FPS
Color space : YUV
Chroma subsampling : 4:2:0
Bit depth : 8 bits
Scan type : Progressive
Bits/(Pixel*Frame) : 0.109
Stream size : 2.94 GiB (97%)
Language : English
Default : Yes
Forced : No

Audio
ID : 2
Format : MPEG Audio
Format version : Version 1
Format profile : Layer 2
Codec ID : A_MPEG/L2
Codec ID/Hint : MP2
Duration : 1 h 14 min
Bit rate mode : Constant
Bit rate : 192 kb/s
Channel(s) : 2 channels
Sampling rate : 48.0 kHz
Frame rate : 41.667 FPS (1152 SPF)
Compression mode : Lossy
Stream size : 102 MiB (3%)
Title : Максим Подзігун
Language : Ukrainian
Default : Yes
Forced : No
Скріншоти:


Зведення: sergiyko


 Трекер:    Зареєстрований   

Завантажити / скачати торрент



відео для новачків



 Зареєстрований:   2019-07-13 18:53
 Розмір:   3.04 GB 
 Оцінка:   10/10 (Голосів: 13)
   
butser 
Новенький


З нами з: 10.04.18
Востаннє: 14.07.19
Повідомлень: 11

2019-07-14 14:21  
Дякую дуже!
Ваш часовий пояс: GMT + 2 Години

Нова тема   Відповісти