Міс Куля / Miss Bala (2019) 720p Eng | Sub Ukr/Eng

Нові коментарі

Нова тема   Відповісти
Автор Повідомлення
Anonymous 







2019-07-13 16:44  
Міс Куля / Miss Bala (2019) 720p Eng | Sub Ukr/Eng

Альтернативний постер:



Жанр: бойовик, кримінальний, драма
Країна: Мексика, США



Кінокомпанія: Canana Films, Misher Films, Sony Pictures Entertainment
Режисер: Кетрін Гардвік / Catherine Hardwicke
Актори: Джина Родрігес / Gina Rodriguez, Ентоні Макі / Anthony Mackie, Ісмаель Круз Кордова / Ismael Cruz Cordova, Метт Лауріа / Matt Lauria, Томас Деккер / Thomas Dekker, Айслінн Дербес / Aislinn Derbez, Крістіна Рольдо / Cristina Rodlo, Рікардо Абарка / Ricardo Abarca, Даніела де ла Фе / Daniela de la Fe та інші

Сюжет:
Візажистка та учасниця конкурсу краси Ґлорія стає свідком жорстокої бандитської розправи у нічному клубі і потрапляє в руки харизматичного наркобарона. За допомогою шантажу і погроз він використовує відчайдушну красуню як пішака у своїй грі проти корумпованої поліції і УБН.
Офіційний трейлер:

Рейтинг MPAA: PG-13 - дітям до 13 років перегляд не бажаний
Вікова категорія: 16+

Тривалість: 01:43:58
Якість: 720p
Відео:
кодек:
розмір кадру: 1280х536
бітрейт: 7087 кб/с

Аудіо:
мова: англійська
переклад: оригінал
кодек: 5.1
бітрейт: 640 кб/с

Субтитри # 1: /
мова: українська
тип: програмні (м'які)
формат: *.srt
переклад: Юрій Лаховський

Субтитри # 2:
мова: англійська
тип: програмні (м'які)
формат: *.srt

Збережено оригінальні розділи, як на Blu-ray
Info
Код:

Complete name               : Miss Bala (2019) [Eng sub.Ukr,Eng] 720p [Hurtom].
Format                      :
Format version              : Version 4
File size                   : 5.61 GiB
Duration                    : 1 h 43 min
Overall bit rate            : 7 729 kb/s
Movie name                  : Міс Куля / Miss Bala (2019) [Eng sub.Ukr,Eng] 720p [Hurtom]
Encoded date                : UTC 2019-07-13 14:14:34
Writing application         : v35.0.0 ('All The Love In The World') 64-bit
Writing library             : libebml v1.3.9 + v1.5.2
Cover                       : Yes
Attachments                 : cover.jpg

Video
ID                          : 1
Format                      : AVC
Format/Info                 : Advanced Video Codec
Format profile              : [email protected]
Format settings             : CABAC / 12 Ref Frames
Format settings, CABAC      : Yes
Format settings, Reference  : 12 frames
Codec ID                    : V_MPEG4/ISO/AVC
Duration                    : 1 h 43 min
Bit rate                    : 7 087 kb/s
Width                       : 1 280 pixels
Height                      : 536 pixels
Display aspect ratio        : 2.40:1
Frame rate mode             : Constant
Frame rate                  : 23.976 (24000/1001) FPS
Color space                 : YUV
Chroma subsampling          : 4:2:0
Bit depth                   : 8 bits
Scan type                   : Progressive
Bits/(Pixel*Frame)          : 0.431
Stream size                 : 5.15 GiB (92%)
Title                       : Міс Куля / Miss Bala (2019) 720p [playHD]
Writing library             : core 146 r2538 121396c
Encoding settings           : cabac=1 / ref=12 / deblock=1:-3:-3 / analyse=0x3:0x133 / me=umh / subme=10 / psy=1 / psy_rd=1.00:0.00 / mixed_ref=1 / me_range=32 / chroma_me=1 / trellis=2 / 8x8dct=1 / cqm=0 / deadzone=21,11 / fast_pskip=0 / chroma_qp_offset=-2 / threads=3 / lookahead_threads=1 / sliced_threads=0 / nr=0 / decimate=0 / interlaced=0 / bluray_compat=0 / constrained_intra=0 / bframes=9 / b_pyramid=2 / b_adapt=2 / b_bias=0 / direct=3 / weightb=1 / open_gop=0 / weightp=2 / keyint=250 / keyint_min=23 / scenecut=40 / intra_refresh=0 / rc=crf / mbtree=0 / crf=14.0 / qcomp=0.60 / qpmin=0 / qpmax=69 / qpstep=4 / ip_ratio=1.40 / pb_ratio=1.30 / aq=3:0.80
Language                    : English
Default                     : Yes
Forced                      : No

Audio
ID                          : 2
Format                      : AC-3
Format/Info                 : Audio Coding 3
Commercial name             : Dolby Digital
Codec ID                    : A_AC3
Duration                    : 1 h 43 min
Bit rate mode               : Constant
Bit rate                    : 640 kb/s
Channel(s)                  : 6 channels
Channel layout              : L R C LFE Ls Rs
Sampling rate               : 48.0 kHz
Frame rate                  : 31.250 FPS (1536 SPF)
Bit depth                   : 16 bits
Compression mode            : Lossy
Stream size                 : 476 MiB (8%)
Title                       : Original, 5.1 640 Kbps
Language                    : English
Service kind                : Complete Main
Default                     : Yes
Forced                      : No

Text #1
ID                          : 3
Format                      : UTF-8
Codec ID                    : S_TEXT/UTF8
Codec ID/Info               : UTF-8 Plain Text
Duration                    : 1 h 42 min
Bit rate                    : 53 b/s
Count of elements           : 972
Stream size                 : 40.0 KiB (0%)
Title                       : Ukr Full [BluRay / iTunes]
Language                    : Ukrainian
Default                     : Yes
Forced                      : Yes

Text #2
ID                          : 4
Format                      : UTF-8
Codec ID                    : S_TEXT/UTF8
Codec ID/Info               : UTF-8 Plain Text
Duration                    : 1 h 36 min
Bit rate                    : 35 b/s
Count of elements           : 951
Stream size                 : 24.9 KiB (0%)
Title                       : Eng Full
Language                    : English
Default                     : No
Forced                      : No

Menu
00:00:00.000                : en:Chapter 01
00:05:31.706                : en:Chapter 02
00:12:15.777                : en:Chapter 03
00:17:39.600                : en:Chapter 04
00:24:00.439                : en:Chapter 05
00:27:02.621                : en:Chapter 06
00:35:19.034                : en:Chapter 07
00:41:09.801                : en:Chapter 08
00:46:20.236                : en:Chapter 09
00:55:58.021                : en:Chapter 10
00:59:22.768                : en:Chapter 11
01:03:48.950                : en:Chapter 12
01:09:17.945                : en:Chapter 13
01:20:28.741                : en:Chapter 14
01:25:28.373                : en:Chapter 15
01:30:06.610                : en:Chapter 16
Скріншоти
Джерело: &


 Трекер:    Зареєстрований   

Завантажити / скачати фільм українською



відео для новачків



 Зареєстрований:   2019-07-13 18:52
 Розмір:   5.61 GB 
 Оцінка фільму:   10/10 (Голосів: 1)
 ЗАЛИШАЙТЕСЬ ЯКОМОГА ДОВШЕ НА РОЗДАЧІ! ЗАВАНТАЖИВ САМ - ДАЙ ЗАВАНТАЖИТИ ІНШИМ!
   
Інші релізи
   Міс Куля / Miss Bala (2019) AVC Eng | Sub Ukr/Eng igor911  5 / 2   2.36 GB   2019-07-13 23:25 
bot 
робот


З нами з: 30.09.07
Востаннє: 26.05.05
Повідомлень: 21631

2019-07-13 18:52  
Тему перенесено з Анонси релізів до форуму Фільми


igor911

Ваш часовий пояс: GMT + 2 Години

Нова тема   Відповісти