МАПС / Зоряна Мапа / MAPS / Maps densetsu no fukkatsu [1994]

Нові коментарі

Нова тема   Відповісти
Автор Повідомлення
Arch Enemy 
VIP


З нами з: 30.08.12
Востаннє: 19.08.19
Повідомлень: 1689

2019-07-13 14:20  
МАПС / Зоряна Мапа / MAPS / Maps densetsu no fukkatsu


Вікове обмеження: 13+



Країна: Японія
Трансляція: з 08.07.1994 по 24.02.1995
Жанр: пригоди, фантастика
Аніместудія: TMS, KSS
Тривалість: 4 епізоди, ~30хв./1еп.

Автор оригінала: Хасеґава Юйчі
Режисер: Нішізава Сусуму
Сейю: Маріко Кода, Хікару Мідорікава, Меґумі Оґата, Аі Орікаса, Мікі Такахаші, Юмі Тама, Міна Томінаґа та інші.

Сюжет:
У пошуках Мапмена, останнього члена племені Зоряних мандрівників, Ліпуміра відправляється на Землю та знаходить його в Токіо. Його ім'я - Токішіма, і він єдиний, хто здатний знайти приховану частину мапи на Землі. Після цього, Ґен повинен прийняти рішення, відправитися разом з Ліпумірою на пошук, щоб знайти решту частин мапи або ж залишитися на Землі...

якість:
контейнер:
кодек:
частота кадрів: 23.976 кадрів/сек.
розмір кадру: 720х480 (анаморф 720x540) пікс.
бітрейт: ~1600 кбіт/сек.
бітність: 10 біт.

Аудіо:
мова: українська, двоголосе закадрове озвучення.
кодек: Vorbis
кількість каналів: 2.0
бітрейт: 192 кбіт/сек.
частота: 48000 Гц

Субтитри:
мова: українська, тільки лірика
формат:
тип: м'які, внутрішні

Джерело перекладу та озвучення: AniUA

текст читали: Draakull та Artymko
переклад: Kohinsan
робота зі звуком:Kohinsan
Скріншоти

MI
General
Unique ID : 41160151631388973757915198988013656200 (0x1EF72827997BD52A55018E32302DD888)
Complete name : E:\Anime\[AniUA]_Maps_[Draakull_&_Artymko]\[AniUA]_Maps_01_[Draakull_&_Artymko].
Format :
Format version : Version 4
File size : 361 MiB
Duration : 28 min 29 s
Overall bit rate : 1 774 kb/s
Encoded date : UTC 2019-07-13 10:41:09
Writing application : v26.0.0 ('In The Game') 64-bit
Writing library : libebml v1.3.6 + v1.4.9

Video
ID : 1
Format : AVC
Format/Info : Advanced Video Codec
Format profile : High [email protected]
Format settings : CABAC / 16 Ref Frames
Format settings, CABAC : Yes
Format settings, Reference : 16 frames
Codec ID : V_MPEG4/ISO/AVC
Duration : 28 min 29 s
Bit rate : 1 579 kb/s
Width : 720 pixels
Height : 480 pixels
Display aspect ratio : 4:3
Frame rate mode : Constant
Frame rate : 23.976 (24000/1001) FPS
Color space : YUV
Chroma subsampling : 4:2:0
Bit depth : 10 bits
Scan type : Progressive
Bits/(Pixel*Frame) : 0.191
Stream size : 322 MiB (89%)
Title : Maps 01
Writing library : core 120 r2120 0c7dab9
Language : Japanese
Default : Yes
Forced : Yes

Audio
ID : 2
Format : Vorbis
Format settings, Floor : 1
Codec ID : A_VORBIS
Duration : 28 min 29 s
Bit rate mode : Constant
Bit rate : 192 kb/s
Minimum bit rate : 192 kb/s
Channel(s) : 2 channels
Sampling rate : 48.0 kHz
Frame rate : 65.153 FPS (737 SPF)
Compression mode : Lossy
Stream size : 39.1 MiB (11%)
Title : AniUA
Writing application : REAPER
Writing library : libVorbis (Now 100% fewer shells) (20180316 (Now 100% fewer shells))
Language : Ukrainian
Default : Yes
Forced : Yes
Якщо вам подобаються наші релізи, і є бажання чимось допомогти проекту, то будемо раді, якщо ви підтримаєте нас фінансово. І, якщо хочете подякувати за якесь конкретне аніме, або форсувати процес озвучення, прохання вказати у коментарі до переказу.
Підтримати/подякувати «AniUA»
Також у нас можна замовити переклад або озвучення



Авторський реліз (завантажувати можна без реєстрації)
 Трекер:    Зареєстрований   

Завантажити / скачати аніме українською



відео для новачків



 Зареєстрований:   2019-07-13 14:20
 Розмір:   1.36 GB 
 Оцінка аніме:   9.7/10 (Голосів: 3)
   
Ваш часовий пояс: GMT + 2 Години

Нова тема   Відповісти