Встигнути до опівночі (Встигнути до півночі) / Midnight Run (1988) Remux 1080p 2хUkr/Eng | Sub Eng

Нові коментарі

Нова тема   Відповісти
Автор Повідомлення
MakRA 
VIP


З нами з: 11.11.18
Востаннє: 30.09.20
Повідомлень: 1120

2019-07-12 23:51  
Встигнути до опівночі (Встигнути до півночі) / Midnight Run (1988) Remux 1080p 2хUkr/Eng | Sub Eng


Український постер:

Альтернативні обкладинки:



Жанр: екшн, комедія, кримінальний
Країна: США



Кінокомпанія: Universal Pictures, City Light Films
Режисер: Мартін Брест [Martin Brest]
Актори: Роберт Де Ніро [Robert De Niro], Чарльз Гродін [Charles Grodin], Яфет Котто [Yaphet Kotto], Джон Ештон [John Ashton], Денніс Фаріна [Dennis Farina], Джо Пантольяно [Joe Pantoliano], Річард Форонджи [Richard Foronjy], Роберт Міранда [Robert Miranda], Джек Кіхоу [Jack Kehoe], Уенді Філліпс [Wendy Phillips].

Сюжет:
Джек Уолш - досвідчений професіонал, майстер своєї справи. Колись він служив в поліції, а зараз займається приватним розшуком. Його спеціалізація - операції по затриманню збіглих злочинців.
На цей раз Джек зайнятий пошуками Джонатана Мандукіса, відомого під кличкою «Герцог». Мандукіс, скромний і інтелігентний бухгалтер, умудрився вкрасти у мафії 15 мільйонів доларів. За домовленістю Джек повинен зловити «Герцога», закувати в наручники і доставити на літаку з Нью-Йорка до Лос-Анджелесу у вказаний строк.
За це Уолш отримає цілих сто тисяч доларів.Для досвідченого «мисливця за головами» подібне завдання - суща дрібниця. Але Джек не врахував, що крім нього на Мандукісом активно полюють гангстери, ФБР і віроломний колега-конкурент.
Більш того, Мандукіс панічно боїться літати і Джеку належить везти Герцога через всю Америку.



Тривалість: 02:06:18
Якість: Remux 1080p
Відео:
кодек:
розмір кадру: 1920 х 1080
бітрейт: 31 Mб/с

Аудіо # 1:
мова: українська
переклад: багатоголосий закадровий
кодек: 2.0
бітрейт: 192 кб/с
примітка: назву перекладено як "Встигнути до опівночі"

Аудіо # 2:
мова: українська
переклад: багатоголосий закадровий
кодек: 5.1
бітрейт: 384 кб/с
примітка: назву перекладено як "Встигнути до опівночі"

Аудіо # 3:
мова: українська
переклад: багатоголосий закадровий
кодек: 2.0
бітрейт: 192 кб/с
примітка: назву перекладено як "Встигнути до півночі"

Аудіо # 4:
мова: англійська
переклад: оригінал
кодек: -HD MA 5.1
бітрейт: 1722 кб/с

Аудіо # 5:
мова: англійська
переклад: оригінал
кодек: 2.0
бітрейт: 192 кб/с

Субтитри: (Full)
мова: англійська
тип: програмні (м'які)
формат: *.srt

Збережено оригінальні розділи, як на Blu-ray.
Info
General
Unique ID : 128586074950351785162388064395099062375 (0x60BCC6F7BF15846EDB81B661A8C34067)
Complete name : F:\Екшн, комедія\Midnight Run (1988) Remux 1080p 2хUkrEng Sub Eng [Hurtom].
Format :
Format version : Version 4 / Version 2
File size : 29.7 GiB
Duration : 2 h 6 min
Overall bit rate mode : Variable
Overall bit rate : 33.7 Mb/s
Movie name : Встигнути до опівночі / Встигнути до півночі / Midnight Run (1988) Remux 1080p 2хUkr/Eng | Sub Eng [Hurtom]
Encoded date : UTC 2019-07-12 19:45:26
Writing application : v25.0.0 ('Prog Noir') 64-bit
Writing library : libebml v1.3.6 + v1.4.9

Video
ID : 1
Format : AVC
Format/Info : Advanced Video Codec
Format profile : [email protected]
Format settings, CABAC : Yes
Format settings, RefFrames : 4 frames
Codec ID : V_MPEG4/ISO/AVC
Duration : 2 h 6 min
Bit rate mode : Variable
Bit rate : 31.0 Mb/s
Maximum bit rate : 35.0 Mb/s
Width : 1 920 pixels
Height : 1 080 pixels
Display aspect ratio : 16:9
Frame rate mode : Constant
Frame rate : 23.976 (24000/1001) FPS
Standard : NTSC
Color space : YUV
Chroma subsampling : 4:2:0
Bit depth : 8 bits
Scan type : Progressive
Bits/(Pixel*Frame) : 0.624
Stream size : 27.4 GiB (92%)
Title : Midnight Run (1988) Remux 1080p 2хUkr/Eng | Sub Eng [Hurtom]
Language : Ukrainian
Default : Yes
Forced : Yes
Color range : Limited
Color primaries : BT.709
Transfer characteristics : BT.709
Matrix coefficients : BT.709

Audio #1
ID : 2
Format : AC-3
Format/Info : Audio Coding 3
Format settings, Endianness : Big
Codec ID : A_AC3
Duration : 2 h 6 min
Bit rate mode : Constant
Bit rate : 192 kb/s
Channel(s) : 2 channels
Channel positions : Front: L R
Sampling rate : 48.0 kHz
Frame rate : 31.250 FPS (1536 SPF)
Bit depth : 16 bits
Compression mode : Lossy
Stream size : 173 MiB (1%)
Title : MVO [ICTV] 2.0
Language : Ukrainian
Service kind : Complete Main
Default : Yes
Forced : Yes

Audio #2
ID : 3
Format : AC-3
Format/Info : Audio Coding 3
Format settings, Endianness : Big
Codec ID : A_AC3
Duration : 2 h 6 min
Bit rate mode : Constant
Bit rate : 384 kb/s
Channel(s) : 6 channels
Channel positions : Front: L C R, Side: L R, LFE
Sampling rate : 48.0 kHz
Frame rate : 31.250 FPS (1536 SPF)
Bit depth : 16 bits
Compression mode : Lossy
Delay relative to video : 16 ms
Stream size : 347 MiB (1%)
Title : MVO [ICTV] 5.1
Language : Ukrainian
Service kind : Complete Main
Default : No
Forced : No

Audio #3
ID : 4
Format : AC-3
Format/Info : Audio Coding 3
Format settings, Endianness : Big
Codec ID : A_AC3
Duration : 2 h 5 min
Bit rate mode : Constant
Bit rate : 192 kb/s
Channel(s) : 2 channels
Channel positions : Front: L R
Sampling rate : 48.0 kHz
Frame rate : 31.250 FPS (1536 SPF)
Bit depth : 16 bits
Compression mode : Lossy
Stream size : 173 MiB (1%)
Title : MVO [NLO.TV] [УКРАЇНА] 2.0
Language : Ukrainian
Service kind : Complete Main
Default : No
Forced : No

Audio #4
ID : 5
Format :
Format/Info : Digital Theater Systems
Format profile : MA / Core
Mode : 16
Format settings, Endianness : Big
Codec ID : A_DTS
Duration : 2 h 6 min
Bit rate mode : Variable / Constant
Bit rate : 1 722 kb/s / 1 509 kb/s
Channel(s) : 6 channels
Channel positions : Front: L C R, Side: L R, LFE
Sampling rate : 48.0 kHz
Frame rate : 93.750 FPS (512 SPF)
Bit depth : 16 bits
Compression mode : Lossless / Lossy
Stream size : 1.52 GiB (5%)
Title : Original -HD MA 5.1
Language : English
Default : No
Forced : No

Audio #5
ID : 6
Format : AC-3
Format/Info : Audio Coding 3
Format settings, Endianness : Big
Codec ID : A_AC3
Duration : 2 h 5 min
Bit rate mode : Constant
Bit rate : 192 kb/s
Channel(s) : 2 channels
Channel positions : Front: L R
Sampling rate : 48.0 kHz
Frame rate : 31.250 FPS (1536 SPF)
Bit depth : 16 bits
Compression mode : Lossy
Stream size : 173 MiB (1%)
Title : Original 2.0
Language : English
Service kind : Complete Main
Default : No
Forced : No

Text
ID : 7
Format : UTF-8
Codec ID : S_TEXT/UTF8
Codec ID/Info : UTF-8 Plain Text
Duration : 2 h 1 min
Bit rate : 65 b/s
Count of elements : 1522
Stream size : 58.3 KiB (0%)
Title : Eng (Full)
Language : English
Default : No
Forced : No

Menu
00:00:00.000 : en:Chapter 1
00:08:21.417 : en:Chapter 2
00:15:56.747 : en:Chapter 3
00:22:27.429 : en:Chapter 4
00:30:01.090 : en:Chapter 5
00:38:12.248 : en:Chapter 6
00:45:06.370 : en:Chapter 7
00:54:39.276 : en:Chapter 8
01:00:30.209 : en:Chapter 9
01:07:58.783 : en:Chapter 10
01:18:17.567 : en:Chapter 11
01:23:02.477 : en:Chapter 12
01:31:34.530 : en:Chapter 13
01:39:10.110 : en:Chapter 14
01:47:22.519 : en:Chapter 15
01:56:36.781 : en:Chapter 16
02:02:10.489 : en:Chapter 17
Скріншоти
Джерело: &
За доріжку від ICTV дякую п. _oles , olgaya та Merdiff; за запис з НЛО дякую пану РОМЕО, за зведення п. Arsenfpu
Особиста оцінка: 10 - без зайвих вагань рекомендую всім!



Золотий реліз (завантажене не впливає на рейтинг)
 Трекер:    Зареєстрований   

Завантажити / скачати фільм українською



відео для новачків



 Зареєстрований:   2019-07-12 23:51
 Розмір:   29.73 GB 
 Оцінка фільму:   9.7/10 (Голосів: 11)
   
antik_2008 
Релізер і модератор відео


З нами з: 20.10.08
Востаннє: 29.09.20
Повідомлень: 4167

2020-04-09 02:23  
MakRA Дякую! Крутий фільм.
Ваш часовий пояс: GMT + 2 Години

Нова тема   Відповісти