Мисливець за головами / The Head Hunter (2018) AVC Eng | Sub Ukr/Eng

Нові коментарі

Нова тема   Відповісти
Автор Повідомлення
Anonymous 







2019-07-12 16:35  
Мисливець за головами / The Head Hunter (2018) Eng | Sub Ukr/Eng

Мисливець за головами / The Head Hunter (2018) AVC Eng | Sub Ukr/Eng
Альтернативний постер:

Мисливець за головами / The Head Hunter (2018) AVC Eng | Sub Ukr/Eng


Жанр: жахи, фентезі
Країна: США



Кінокомпанія: Brayne Studios, Detention Films
Режисер: Джордан Дауні / Jordan Downey
Актори: Кристофер Рай / Christopher Rygh, Кора Кауфман / Cora Kaufman

Сюжет:
Середньовічний воїн живе відлюдником в похмурому лісі і прагне помститися смертельно небезпечному чудовиську за смерть своєї єдиної дочки. Отримуючи від короля відомості про появу монстрів поблизу, він вирушає за їх головами, щоразу сподіваючись, що зустріне свого заклятого ворога.
Офіційний трейлер:

Вікова категорія: 16+

Тривалість: 01:12:27
Якість: AVC
Відео:
кодек:
розмір кадру: 1024х576
бітрейт: 1908 кб/с

Аудіо:
мова: англійська
переклад: оригінал
кодек: 5.1
бітрейт: 448 кб/с

Субтитри:
мова: українська
тип: програмні (м'які)
формат: *.srt

Субтитри:
мова: англійська
тип: програмні (м'які)
формат: *.srt

Збережено оригінальні розділи, як на Blu-ray
Info
Код:

Complete name               : The Head Hunter (2018) [Eng sub.Ukr,Eng] AVC [Hurtom].
Format                      :
Format version              : Version 4
File size                   : 1.19 GiB
Duration                    : 1 h 12 min
Overall bit rate            : 2 354 kb/s
Movie name                  : Мисливець за головами / The Head Hunter (2018) [Eng sub.Ukr,Eng] AVC [Hurtom]
Encoded date                : UTC 2019-07-12 17:21:11
Writing application         : v35.0.0 ('All The Love In The World') 64-bit
Writing library             : libebml v1.3.9 + v1.5.2
Cover                       : Yes
Attachments                 : cover.jpg

Video
ID                          : 1
Format                      : AVC
Format/Info                 : Advanced Video Codec
Format profile              : [email protected]
Format settings             : CABAC / 12 Ref Frames
Format settings, CABAC      : Yes
Format settings, Reference  : 12 frames
Codec ID                    : V_MPEG4/ISO/AVC
Duration                    : 1 h 12 min
Bit rate                    : 1 908 kb/s
Width                       : 1 024 pixels
Height                      : 576 pixels
Display aspect ratio        : 16:9
Frame rate mode             : Constant
Frame rate                  : 23.976 (23976/1000) FPS
Color space                 : YUV
Chroma subsampling          : 4:2:0
Bit depth                   : 8 bits
Scan type                   : Progressive
Bits/(Pixel*Frame)          : 0.135
Stream size                 : 987 MiB (81%)
Title                       : Мисливець за головами / The Head Hunter (2018) AVC [Enigma]
Writing library             : core 152 r2851 ba24899
Encoding settings           : cabac=1 / ref=12 / deblock=1:-2:-2 / analyse=0x3:0x113 / me=umh / subme=10 / psy=1 / psy_rd=1.07:0.10 / mixed_ref=1 / me_range=32 / chroma_me=1 / trellis=2 / 8x8dct=1 / cqm=0 / deadzone=21,11 / fast_pskip=0 / chroma_qp_offset=-3 / threads=12 / lookahead_threads=3 / sliced_threads=0 / nr=0 / decimate=0 / interlaced=0 / bluray_compat=0 / constrained_intra=0 / bframes=12 / b_pyramid=2 / b_adapt=2 / b_bias=0 / direct=3 / weightb=1 / open_gop=0 / weightp=2 / keyint=240 / keyint_min=23 / scenecut=40 / intra_refresh=0 / rc=2pass / mbtree=0 / bitrate=1908 / ratetol=1.0 / qcomp=0.70 / qpmin=0 / qpmax=51 / qpstep=4 / cplxblur=20.0 / qblur=0.5 / ip_ratio=1.30 / pb_ratio=1.20 / aq=3:0.80
Language                    : English
Default                     : Yes
Forced                      : No
Color range                 : Limited
Color primaries             : BT.709
Transfer characteristics    : BT.709
Matrix coefficients         : BT.709

Audio
ID                          : 2
Format                      : AC-3
Format/Info                 : Audio Coding 3
Commercial name             : Dolby Digital
Codec ID                    : A_AC3
Duration                    : 1 h 12 min
Bit rate mode               : Constant
Bit rate                    : 448 kb/s
Channel(s)                  : 6 channels
Channel layout              : L R C LFE Ls Rs
Sampling rate               : 48.0 kHz
Frame rate                  : 31.250 FPS (1536 SPF)
Bit depth                   : 16 bits
Compression mode            : Lossy
Stream size                 : 232 MiB (19%)
Title                       : Original, 5.1 448 Kbps
Language                    : English
Service kind                : Complete Main
Default                     : Yes
Forced                      : No

Text #1
ID                          : 3
Format                      : UTF-8
Codec ID                    : S_TEXT/UTF8
Codec ID/Info               : UTF-8 Plain Text
Duration                    : 1 h 12 min
Bit rate                    : 2 b/s
Count of elements           : 58
Stream size                 : 1.49 KiB (0%)
Title                       : Ukr Full [SubAutumn]
Language                    : Ukrainian
Default                     : Yes
Forced                      : Yes

Text #2
ID                          : 4
Format                      : UTF-8
Codec ID                    : S_TEXT/UTF8
Codec ID/Info               : UTF-8 Plain Text
Duration                    : 1 h 8 min
Bit rate                    : 7 b/s
Count of elements           : 226
Stream size                 : 3.67 KiB (0%)
Title                       : Eng full
Language                    : English
Default                     : No
Forced                      : No

Menu
00:00:00.000                : en:Глава 01
00:05:32.374                : en:Глава 02
00:12:24.869                : en:Глава 03
00:18:25.396                : en:Глава 04
00:25:51.759                : en:Глава 05
00:30:01.800                : en:Глава 06
00:36:04.537                : en:Глава 07
00:42:41.476                : en:Глава 08
00:49:05.109                : en:Глава 09
00:53:28.622                : en:Глава 10
01:01:16.756                : en:Глава 11
01:08:15.925                : en:Глава 12
Скріншоти



Джерело: & &


Золотий реліз (завантажене не впливає на рейтинг)
 Трекер:    Зареєстрований   

Завантажити / скачати фільм українською



відео для новачків



 Зареєстрований:   2019-07-12 19:40
 Розмір:   1.19 GB 
 Оцінка фільму:   9.3/10 (Голосів: 6)
 ЗАЛИШАЙТЕСЬ ЯКОМОГА ДОВШЕ НА РОЗДАЧІ! ЗАВАНТАЖИВ САМ - ДАЙ ЗАВАНТАЖИТИ ІНШИМ!
   
bot 
робот


З нами з: 30.09.07
Востаннє: 26.05.05
Повідомлень: 26481

2019-07-12 19:40  
Тему перенесено з Анонси релізів до форуму Фільми


igor911

Jani307 
Свій


З нами з: 09.06.14
Востаннє: 05.12.20
Повідомлень: 134

2019-07-16 20:48  
Люди як кіно хто дивився?
vaso304 
Новенький


З нами з: 17.06.17
Востаннє: 01.06.20
Повідомлень: 3

2020-01-28 10:08  
Похмурий, дууууже неспішний фільм. Чимось нагадав "Терор", але без сцен битви з монстрами.
HamelioNHarD 
Новенький


З нами з: 20.01.13
Востаннє: 04.12.20
Повідомлень: 12

2020-01-28 19:49  
Jani307
філму переклад взагалі не потрібен. Кіно далеко на любителя, рейтин мабуть навіть зависокий, а кіно нудне і ніяке!

Ваш часовий пояс: GMT + 2 Години

Нова тема   Відповісти