Початок (Сезон 1) / Origin (Season 1) (2018) 720p Ukr/Eng | sub Eng/Multi

Нові коментарі

Нова тема   Відповісти
Автор Повідомлення
Anonymous 







2019-07-12 13:33  
Початок (Сезон 1) / Origin (Season 1) (2018) 720p Ukr/Eng | sub Eng/Multi

Початок (Сезон 1) / Origin (Season 1) (2018) 720p Ukr/Eng | sub Eng/Multi


Жанр: жахи, фантастика
Країна: Велика Британія



Кінокомпанія: Left Bank Pictures, YouTube Origins
Режисер: Пол Андерсон, Марк Брозел, Хуан Карлос Медіна
Актори: Наталія Тена, Філіп Крістофер, Шиван Каллен, Том Фелтон, Сен Міцудзі, Нора Арнезедер, Медалін Хорчер, Фрайзер Джеймс та інші

Сюжет:
Група незнайомців бореться за виживання на борту космічного корабля, що прямує на далеку планету. Але серед них є одна людина, що зовсім не та, якою здається...

Тривалість: 1 серія: 45 хв. (цілком серій: 10)
Перелік серій
1. The Road Not Taken
2. Lost on Both Sides
3. Bright Star
4. God's Grandeur
5. Remember Me
6. Fire and Ice
7. The Wasteland
8. Funeral Blues
9. A Total Stranger
10. I Am
Якість:
Відео:
кодек: VP9
розмір кадру: 1280 х 720
бітрейт: 1152 кб/с

Аудіо # 1:
мова: українська
переклад: багатоголосий закадровий
кодек: 5.1
бітрейт: 384 кб/с

Аудіо # 2:
мова: англійська
переклад: оригінал
кодек: 5.1
бітрейт: 384 кб/с

Джерело озвучення:
DniproFilm

Субтитри:
мова: англійська, німецька, іспанська, французька, гінді, італійська, японська, корейська, португальська (бразильська)
тип: програмні (м'які)
формат: *.srt
Info
General
Unique ID : 104340359324058739718984087069364179263 (0x4E7F38E4EB5DEBC3D555223EC1D9D13F)
Complete name : Origin S01E01 (2018) HEVC 720p [Ukr.Eng, sub ENG] [Hurtom].
Format :
Format version : Version 4
File size : 666 MiB
Duration : 47 min 42 s
Overall bit rate : 1 953 kb/s
Movie name : Початок (Сезон 1, серія 1) (2018)
Encoded date : UTC 2019-04-25 11:49:03
Writing application : v30.1.0 ('Forever And More') 64-bit
Writing library : libebml v1.3.6 + v1.4.9
Cover : Yes
Attachments : cover.jpg

Video
ID : 1
Format : VP9
Codec ID : V_VP9
Duration : 47 min 42 s
Bit rate : 1 181 kb/s
Width : 1 280 pixels
Height : 720 pixels
Display aspect ratio : 16:9
Frame rate mode : Constant
Frame rate : 23.976 (24000/1001) FPS
Color space : YUV
Bits/(Pixel*Frame) : 0.053
Stream size : 403 MiB (61%)
Language : English
Default : Yes
Forced : No
Color range : Limited
Color primaries : BT.709
Transfer characteristics : BT.709
Matrix coefficients : BT.709

Audio #1
ID : 2
Format : AC-3
Format/Info : Audio Coding 3
Commercial name : Dolby Digital
Codec ID : A_AC3
Duration : 47 min 42 s
Bit rate mode : Constant
Bit rate : 384 kb/s
Channel(s) : 6 channels
Channel layout : L R C LFE Ls Rs
Sampling rate : 48.0 kHz
Frame rate : 31.250 FPS (1536 SPF)
Bit depth : 16 bits
Compression mode : Lossy
Stream size : 131 MiB (20%)
Language : Ukrainian
Service kind : Complete Main
Default : Yes
Forced : Yes

Audio #2
ID : 3
Format : LC
Format/Info : Advanced Audio Codec Low Complexity
Codec ID : A_AAC-2
Duration : 47 min 42 s
Bit rate : 384 kb/s
Channel(s) : 6 channels
Channel layout : C L R Ls Rs LFE
Sampling rate : 48.0 kHz
Frame rate : 46.875 FPS (1024 SPF)
Compression mode : Lossy
Stream size : 131 MiB (20%)
Language : English
Default : No
Forced : No

Text #1
ID : 4
Format : UTF-8
Codec ID : S_TEXT/UTF8
Codec ID/Info : UTF-8 Plain Text
Duration : 47 min 13 s
Bit rate : 36 b/s
Count of elements : 542
Stream size : 12.5 KiB (0%)
Language : English
Default : No
Forced : No

Text #2
ID : 5
Format : UTF-8
Codec ID : S_TEXT/UTF8
Codec ID/Info : UTF-8 Plain Text
Duration : 47 min 30 s
Bit rate : 36 b/s
Count of elements : 445
Stream size : 12.5 KiB (0%)
Language : German
Default : No
Forced : No

Text #3
ID : 6
Format : UTF-8
Codec ID : S_TEXT/UTF8
Codec ID/Info : UTF-8 Plain Text
Duration : 47 min 30 s
Bit rate : 29 b/s
Count of elements : 455
Stream size : 10.4 KiB (0%)
Language : Spanish
Default : No
Forced : No

Text #4
ID : 7
Format : UTF-8
Codec ID : S_TEXT/UTF8
Codec ID/Info : UTF-8 Plain Text
Duration : 47 min 30 s
Bit rate : 35 b/s
Count of elements : 444
Stream size : 12.5 KiB (0%)
Language : French
Default : No
Forced : No

Text #5
ID : 8
Format : UTF-8
Codec ID : S_TEXT/UTF8
Codec ID/Info : UTF-8 Plain Text
Duration : 47 min 26 s
Bit rate : 79 b/s
Count of elements : 448
Stream size : 27.6 KiB (0%)
Language : Hindi
Default : No
Forced : No

Text #6
ID : 9
Format : UTF-8
Codec ID : S_TEXT/UTF8
Codec ID/Info : UTF-8 Plain Text
Duration : 47 min 30 s
Bit rate : 33 b/s
Count of elements : 452
Stream size : 11.7 KiB (0%)
Language : Italian
Default : No
Forced : No

Text #7
ID : 10
Format : UTF-8
Codec ID : S_TEXT/UTF8
Codec ID/Info : UTF-8 Plain Text
Duration : 47 min 30 s
Bit rate : 22 b/s
Count of elements : 400
Stream size : 7.83 KiB (0%)
Language : Japanese
Default : No
Forced : No

Text #8
ID : 11
Format : UTF-8
Codec ID : S_TEXT/UTF8
Codec ID/Info : UTF-8 Plain Text
Duration : 47 min 30 s
Bit rate : 39 b/s
Count of elements : 456
Stream size : 13.8 KiB (0%)
Language : Korean
Default : No
Forced : No

Text #9
ID : 12
Format : UTF-8
Codec ID : S_TEXT/UTF8
Codec ID/Info : UTF-8 Plain Text
Duration : 47 min 30 s
Bit rate : 34 b/s
Count of elements : 454
Stream size : 12.0 KiB (0%)
Title : Brazilian
Language : Portuguese
Default : No
Forced : No
Скріншоти
Джерело:


Авторський реліз (завантажувати можна без реєстрації)
 Трекер:    Зареєстрований   

Завантажити / скачати серіал українською



відео для новачків



 Зареєстрований:   2019-07-12 13:33
 Розмір:   6.79 GB 
 Оцінка серіалу:   7.7/10 (Голосів: 7)
   
Ваш часовий пояс: GMT + 2 Години

Нова тема   Відповісти