Піл / Peel (2019) 1080p Eng | Sub Ukr/Eng

Нові коментарі

Нова тема   Відповісти
Автор Повідомлення
Anonymous 







2019-07-12 10:40  
Піл / Peel (2019) 1080p Eng | Sub Ukr/Eng

Піл / Peel (2019) 1080p Eng | Sub Ukr/Eng


Жанр: драма, комедія
Країна: Велика Британія



Кінокомпанія: Head Gear Films, Living the Dream Films, Metrol Technology
Режисер: Рафаель Монсеррате / Rafael Monserrate
Актори: Еміль Гірш, Джек Кесі, Шайло Фернандес, Джейкоб Варгас, Гарретт Клейтон, Емі Бреннеман, Яя ДаКоста, Анджеліна Джу, Трой Холл, Віктор Верхак та інші

Сюжет:
Піл ріс без батька з п'яти років. Ріс у повній ізоляції, яку йому влаштувала любляча, але водночас божевільна мати. Коли Пілу виповнилось тридцять років, він залишився зовсім один після раптової смерті матері і постав перед складним вибором: залишити все як є і продовжити усамітнене життя або увірватися на галасливі вулиці свого міста, знайомлячись з новими людьми?


Альтернативний опис:
Химерна історія про дорослішання Піла (Еміль Гірш), чия дитяча невинність і брак цинізму допомагає усім зламаним людям, яких він зустрічає на своєму шляху, відбудувати родину.
Офіційний трейлер:

Рейтинг MPAA: R - особам до 17 років обов'язкова присутність батьків або дорослого опікуна
Вікова категорія: 16+

Тривалість: 01:41:16
Якість: 1080p
Відео:
кодек:
розмір кадру: 1920 х 800
бітрейт: 4432 кб/с

Аудіо:
мова: англійська
переклад: оригінал
кодек: 5.1
бітрейт: 384 кб/с

Субтитри # 1:
мова: українська
тип: програмні (м'які)
формат: *.srt
переклад: Володимир Фатун
редагування: igor911

Субтитри # 2:
мова: англійська
тип: програмні (м'які)
формат: *.srt

Збережено оригінальні розділи
Info
Код:

Complete name               : Peel (2019) [Eng sub.Ukr,Eng] 1080p [Hurtom].
Format                      :
Format version              : Version 4
File size                   : 3.41 GiB
Duration                    : 1 h 41 min
Overall bit rate            : 4 819 kb/s
Movie name                  : Піл / Peel (2019) [Eng sub.Ukr,Eng] 1080p [Hurtom]
Encoded date                : UTC 2019-07-12 13:56:54
Writing application         : v35.0.0 ('All The Love In The World') 64-bit
Writing library             : libebml v1.3.9 + v1.5.2
Cover                       : Yes
Attachments                 : cover.jpg

Video
ID                          : 1
Format                      : AVC
Format/Info                 : Advanced Video Codec
Format profile              : [email protected]
Format settings             : CABAC / 5 Ref Frames
Format settings, CABAC      : Yes
Format settings, Reference  : 5 frames
Format settings, GOP        : N=1
Codec ID                    : V_MPEG4/ISO/AVC
Duration                    : 1 h 41 min
Bit rate                    : 4 432 kb/s
Width                       : 1 920 pixels
Height                      : 800 pixels
Display aspect ratio        : 2.40:1
Frame rate mode             : Constant
Frame rate                  : 23.976 (23976/1000) FPS
Color space                 : YUV
Chroma subsampling          : 4:2:0
Bit depth                   : 8 bits
Scan type                   : Progressive
Bits/(Pixel*Frame)          : 0.120
Stream size                 : 3.14 GiB (92%)
Title                       : Піл / Peel (2019) 1080p [BlueBird]
Language                    : English
Default                     : Yes
Forced                      : No
Color range                 : Limited
Color primaries             : BT.709
Transfer characteristics    : BT.709
Matrix coefficients         : BT.709

Audio
ID                          : 2
Format                      : AC-3
Format/Info                 : Audio Coding 3
Commercial name             : Dolby Digital
Codec ID                    : A_AC3
Duration                    : 1 h 41 min
Bit rate mode               : Constant
Bit rate                    : 384 kb/s
Channel(s)                  : 6 channels
Channel layout              : L R C LFE Ls Rs
Sampling rate               : 48.0 kHz
Frame rate                  : 31.250 FPS (1536 SPF)
Bit depth                   : 16 bits
Compression mode            : Lossy
Delay relative to video     : -42 ms
Stream size                 : 278 MiB (8%)
Title                       : Original, 5.1 384 Kbps
Language                    : English
Service kind                : Complete Main
Default                     : Yes
Forced                      : No

Text #1
ID                          : 3
Format                      : UTF-8
Codec ID                    : S_TEXT/UTF8
Codec ID/Info               : UTF-8 Plain Text
Duration                    : 1 h 40 min
Bit rate                    : 61 b/s
Count of elements           : 1054
Stream size                 : 45.6 KiB (0%)
Title                       : Ukr Full [iTunes, BlueBird]
Language                    : Ukrainian
Default                     : Yes
Forced                      : Yes

Text #2
ID                          : 4
Format                      : UTF-8
Codec ID                    : S_TEXT/UTF8
Codec ID/Info               : UTF-8 Plain Text
Duration                    : 1 h 36 min
Bit rate                    : 43 b/s
Count of elements           : 1044
Stream size                 : 30.5 KiB (0%)
Title                       : Eng Full
Language                    : English
Default                     : No
Forced                      : No

Menu
00:00:00.000                : en:1
00:05:08.516                : en:2
00:11:19.010                : en:3
00:19:02.263                : en:4
00:26:45.059                : en:5
00:29:53.914                : en:6
00:34:29.773                : en:7
00:44:06.182                : en:8
00:48:23.397                : en:9
00:56:42.895                : en:10
01:04:47.212                : en:11
01:08:08.746                : en:12
01:11:06.964                : en:13
01:21:03.351                : en:14
01:26:16.414                : en:15
01:33:16.916                : en:16
Скріншоти
Джерело: &
Особиста оцінка: 7 - добрий гарний фільм


Срібний реліз (на рейтинг впливає 50% завантаженого)
 Трекер:    Зареєстрований   

Завантажити / скачати фільм українською



відео для новачків



 Зареєстрований:   2019-07-12 16:16
 Розмір:   3.41 GB 
 Оцінка фільму:   9.2/10 (Голосів: 10)
 ЗАЛИШАЙТЕСЬ ЯКОМОГА ДОВШЕ НА РОЗДАЧІ! ЗАВАНТАЖИВ САМ - ДАЙ ЗАВАНТАЖИТИ ІНШИМ!
   
krabapka 
Свій


З нами з: 15.08.15
Востаннє: 03.12.20
Повідомлень: 101

2019-07-13 00:38  
З самого початку щось занудно, вимкнула :-Р
Anonymous 







2019-07-14 10:10  
Добрий фільм. Додав альтернативний опис та скріншоти.
laszlozp 
Забанено
Забанено


З нами з: 28.07.19
Востаннє: 13.11.19
Повідомлень: 492

2019-08-01 15:44  
Дражнилка зацікавила. Треба буде обов'язково переглянути ..
Ваш часовий пояс: GMT + 2 Години

Нова тема   Відповісти