Золота куля (El chuncho quien sabe?) / A Bullet for the General (1966) Remux 1080p Ukr/Ita | Sub Eng

Нові коментарі

Нова тема   Відповісти
Автор Повідомлення
MakRA 
VIP


З нами з: 11.11.18
Востаннє: 29.09.20
Повідомлень: 1120

2019-07-11 16:58  
Золота куля / El chuncho quien sabe? / A Bullet for the General (1966) Remux 1080p Ukr/Ita | Sub Eng


Альтернативні обкладинки та постери:






Жанр: вестерн, пригодницький
Країна: Італія



Кінокомпанія: M. C. M.
Режисер: Даміано Даміані [Damiano Damiani]
Актори: Джан Марія Волонте [Gian Maria Volontè], Клаус Кінскі [Klaus Kinski], Мартін Бесвік [Martine Beswick], Лу Кастель [Lou Castel], Хайме Фернандес [Jaime Fernández], Андреа Кеккі [Andrea Checchi], Спартак Конверсія [Spartaco Conversi], Хоакін Парра [Joaquín Parra], Альдо Самбрелл [Aldo Sambrell], Хосе Мануель Мартін [José Manuel Martín].

Сюжет:
Мексика, початок ХХ століття. Йде громадянська війна всіх проти всіх. Одні борються за свободу своєї країни, інші - захищають свою владу, треті - просто займаються розбоєм.
Молодий елегантний американець приїжджає в залиту кров'ю країну, що ідеально підходить для його цілей: швидко розбагатіти. Він вступає в одну з банд, яка займається торгівлею зброї. Він завойовує довіру повстанців.
Але тільки навіщо він всюди носить із собою як талісман патрон з гвинтівки, в якому відлита із золота куля?


Тривалість: 01:57:48
Якість: Remux 1080p
Відео:
кодек:
розмір кадру: 1920 х 1080
бітрейт: 20,9 Mб/с

Аудіо # 1:
мова: українська
переклад: двоголосий закадровий
кодек: 2.0
бітрейт: 192 кб/с

Аудіо # 2:
мова: італійська
переклад: оригінал
кодек: -HD MA 2.0
бітрейт: 1920 кб/с

Субтитри: (Full)
мова: англійська
тип: пререндерні
формат: *.pgs
Info
General
Unique ID : 333825939884844521866251873716937069952 (0xFB248991FB23E26C8642F040A2329580)
Complete name : F:\Вестерни\El chuncho quien sabe A Bullet for the General (1966) Remux 1080p UkrIta Sub Eng [Hurtom].
Format :
Format version : Version 4 / Version 2
File size : 19.0 GiB
Duration : 1 h 57 min
Overall bit rate mode : Variable
Overall bit rate : 23.0 Mb/s
Movie name : Золота куля / El chuncho quien sabe? / A Bullet for the General (1966) Remux 1080p Ukr/Ita | Sub Eng [Hurtom]
Encoded date : UTC 2019-07-11 12:42:02
Writing application : v25.0.0 ('Prog Noir') 64-bit
Writing library : libebml v1.3.6 + v1.4.9

Video
ID : 1
Format : AVC
Format/Info : Advanced Video Codec
Format profile : [email protected]
Format settings, CABAC : Yes
Format settings, RefFrames : 4 frames
Codec ID : V_MPEG4/ISO/AVC
Duration : 1 h 57 min
Bit rate mode : Variable
Bit rate : 20.9 Mb/s
Maximum bit rate : 39.0 Mb/s
Width : 1 920 pixels
Height : 1 080 pixels
Display aspect ratio : 16:9
Frame rate mode : Constant
Frame rate : 23.976 (24000/1001) FPS
Color space : YUV
Chroma subsampling : 4:2:0
Bit depth : 8 bits
Scan type : Progressive
Bits/(Pixel*Frame) : 0.421
Stream size : 17.2 GiB (91%)
Title : El chuncho quien sabe? / A Bullet for the General (1966) Remux 1080p Ukr/Ita | Sub Eng [Hurtom]
Language : Ukrainian
Default : Yes
Forced : Yes

Audio #1
ID : 2
Format : AC-3
Format/Info : Audio Coding 3
Format settings, Endianness : Big
Codec ID : A_AC3
Duration : 1 h 57 min
Bit rate mode : Constant
Bit rate : 192 kb/s
Channel(s) : 2 channels
Channel positions : Front: L R
Sampling rate : 48.0 kHz
Frame rate : 31.250 FPS (1536 SPF)
Bit depth : 16 bits
Compression mode : Lossy
Stream size : 162 MiB (1%)
Title : DVO [CITI] 2.0
Language : Ukrainian
Service kind : Complete Main
Default : Yes
Forced : Yes

Audio #2
ID : 3
Format :
Format/Info : Digital Theater Systems
Format profile : MA / Core
Mode : 16
Format settings, Endianness : Big
Codec ID : A_DTS
Duration : 1 h 57 min
Bit rate mode : Variable / Constant
Bit rate : 1 920 kb/s / 1 509 kb/s
Channel(s) : 2 channels
Channel positions : Front: L R
Sampling rate : 48.0 kHz
Frame rate : 93.750 FPS (512 SPF)
Bit depth : 24 bits
Compression mode : Lossless / Lossy
Stream size : 1.56 GiB (8%)
Title : Original -HD MA 2.0
Language : Italian
Default : No
Forced : No

Text
ID : 4
Format : PGS
Muxing mode : zlib
Codec ID : S_HDMV/PGS
Codec ID/Info : Picture based subtitle format used on BDs/HD-DVDs
Duration : 1 h 56 min
Bit rate : 39.6 kb/s
Count of elements : 2446
Stream size : 33.0 MiB (0%)
Title : Eng (Full)
Language : English
Default : No
Forced : No
Скріншоти
Джерело: &
Дякую пану Romario_O за звук!
Особиста оцінка: 10 - без зайвих вагань рекомендую всім!



Золотий реліз (завантажене не впливає на рейтинг)
 Трекер:    Зареєстрований   

Завантажити / скачати фільм українською



відео для новачків



 Зареєстрований:   2019-07-11 16:58
 Розмір:   18.96 GB 
 Оцінка фільму:   10/10 (Голосів: 9)
   
Інші релізи
Oleksa9 
VIP


З нами з: 17.05.12
Востаннє: 29.09.20
Повідомлень: 412

2019-10-12 15:08  
убивці -> вбивці
хазяїн -> господар
почєкаємо -> зачекаємо
щьоб -> аби
в першу чергу -> перед усім
малюк (зверт.) -> малюче
почяток, щьо, відпущю, чього, чьому, спочятку, чюдово, кращє, чяс, тисячь, чьотири, нічього, сперечятися, кращьої, прощявай, попрощятися, якщьо, чюжий, одночясно, чюв, щястя, бойня, пощястило

Ваш часовий пояс: GMT + 2 Години

Нова тема   Відповісти