Техаська різанина бензопилою / The Texas Chainsaw Massacre (2003) 1080p H.265 Eng | Sub Ukr/Eng

Нові коментарі

Нова тема   Відповісти
Автор Повідомлення
Anonymous 







2019-07-11 06:57  
Техаська різанина бензопилою / The Texas Chainsaw Massacre (2003) 1080p H.265 Eng | Sub Ukr/Eng

Техаська різанина бензопилою / The Texas Chainsaw Massacre (2003) 1080p H.265 Eng | Sub Ukr/Eng


Жанр: жахи, трилер
Країна: США
Кінокомпанія: New Line Cinema
Режисер: Маркус Ніспел
Актори: Джессіка Біл, Ерік Белфор, Джонатан Такер, Еріка Лірсен, Майк Фогель

Сюжет:
У штаті Техас на фермі звичайного працівника скотобійні Томаса Х'юїта поліція виявила 33 понівечених людських тіла. Жахливе відкриття шокувало людей і було назване найбільш жахливим масовим вбивством за весь час. Газети писали: «Будинок терору національного масштабу. Бійня в Техасі». Преса охрестила вбивцю як «Шкіряне Обличчя».
Місцева поліція застрелила людину, яка носила на обличчі шкіряну маску. Справа була закрита. Але впродовж наступних років безліч вбивств показало, що поліція знайшла не того злочинця. Випадково вцілілий свідок розповів справжню історію того, що насправді сталося на покинутому техаському шосе, коли п'ятеро підлітків опинилися в пастці божевільної людини з бензопилою ...

Тривалість: 01:38:17
Якість:
Відео:
кодек: H.265 (HEVC)
розмір кадру: 1916 x 1080
бітрейт: 10 286 кб/с
бітова глибина: 10 біт
Увага! Перед завантаженням переконайтесь, що ваш пристрій відтворення (та/або ПЗ) підтримує H.265 (HEVC)

Аудіо # 1:
мова: англійська
переклад: оригінал
кодек: 5.1
бітрейт: 1511 кб/с

Субтитри # 1:
мова: українська (Full, з оригіналу (andrew_crasher)),
тип: програмні (м'які)
формат: *.srt

Субтитри # 2:
мова: англійська (Full),
тип: програмні (м'які)
формат: *.srt


Info
Код:
General
Unique ID                                : 44054115213735935355212162776038552848 (0x212483934CABBF28F4B145C1F562B510)
Complete name                            : The Texas Chainsaw Massacre (2003) 1080p H.265 [ENG] [Hurtom].
Format                                   :
Format version                           : Version 4 / Version 2
File size                                : 8.10 GiB
Duration                                 : 1 h 38 min
Overall bit rate                         : 11.8 Mb/s
Movie name                               : Техаська різанина бензопилою / The Texas Chainsaw Massacre (2003)
Encoded date                             : UTC 2019-07-10 19:12:22
Writing application                      : v20.0.0 ('I Am The Sun') 64-bit
Writing library                          : libebml v1.3.5 + v1.4.8
Cover                                    : Yes
Attachments                              : Cover.jpg

Video
ID                                       : 1
Format                                   : HEVC
Format/Info                              : High Efficiency Video Coding
Format profile                           : Main [email protected]@High
Codec ID                                 : V_MPEGH/ISO/HEVC
Duration                                 : 1 h 38 min
Bit rate                                 : 10.3 Mb/s
Width                                    : 1 916 pixels
Height                                   : 1 080 pixels
Display aspect ratio                     : 16:9
Frame rate mode                          : Constant
Frame rate                               : 23.976 (24000/1001) FPS
Color space                              : YUV
Chroma subsampling                       : 4:2:0
Bit depth                                : 10 bits
Bits/(Pixel*Frame)                       : 0.207
Stream size                              : 7.06 GiB (87%)
Title                                    : Техаська різанина бензопилою / The Texas Chainsaw Massacre (2003)
Writing library                          : x265 2.9+9-f74003e88622:[Windows][GCC 8.2.0][64 bit] 10bit
Encoding settings                        : cpuid=1111039 / frame-threads=13 / numa-pools=12 / wpp / no-pmode / no-pme / no-psnr / no-ssim / log-level=3 / input-csp=1 / input-res=1916x1080 / interlace=0 / total-frames=0 / level-idc=41 / high-tier=1 / uhd-bd=0 / ref=5 / allow-non-conformance / no-repeat-headers / annexb / no-aud / no-hrd / info / hash=0 / no-temporal-layers / open-gop / min-keyint=23 / keyint=240 / gop-lookahead=0 / bframes=8 / b-adapt=2 / b-pyramid / bframe-bias=0 / rc-lookahead=60 / lookahead-slices=4 / scenecut=40 / radl=0 / no-intra-refresh / ctu=64 / min-cu-size=8 / rect / amp / max-tu-size=32 / tu-inter-depth=4 / tu-intra-depth=4 / limit-tu=0 / rdoq-level=2 / dynamic-rd=0.00 / no-ssim-rd / signhide / no-tskip / nr-intra=0 / nr-inter=0 / no-constrained-intra / no-strong-intra-smoothing / max-merge=5 / limit-refs=2 / limit-modes / me=3 / subme=7 / merange=57 / temporal-mvp / weightp / weightb / no-analyze-src-pics / deblock=-3:-3 / no-sao / no-sao-non-deblock / rd=6 / no-early-skip / rskip / no-fast-intra / no-tskip-fast / no-cu-lossless / b-intra / no-splitrd-skip / rdpenalty=0 / psy-rd=2.00 / psy-rdoq=1.00 / no-rd-refine / no-lossless / cbqpoffs=0 / crqpoffs=0 / rc=crf / crf=21.5 / qcomp=0.70 / qpstep=4 / stats-write=0 / stats-read=0 / vbv-maxrate=50000 / vbv-bufsize=50000 / vbv-init=0.9 / crf-max=0.0 / crf-min=0.0 / ipratio=1.40 / pbratio=1.30 / aq-mode=2 / aq-strength=1.00 / no-cutree / zone-count=0 / no-strict-cbr / qg-size=32 / no-rc-grain / qpmax=69 / qpmin=0 / no-const-vbv / sar=1 / overscan=0 / videoformat=5 / range=0 / colorprim=1 / transfer=1 / colormatrix=1 / chromaloc=0 / display-window=0 / max-cll=0,0 / min-luma=0 / max-luma=1023 / log2-max-poc-lsb=8 / vui-timing-info / vui-hrd-info / slices=1 / no-opt-qp-pps / no-opt-ref-list-length-pps / no-multi-pass-opt-rps / scenecut-bias=0.05 / no-opt-cu-delta-qp / aq-motion / no-hdr / no-hdr-opt / no-dhdr10-opt / no-idr-recovery-sei / analysis-reuse-level=5 / scale-factor=0 / refine-intra=0 / refine-inter=0 / refine-mv=0 / no-limit-sao / ctu-info=0 / no-lowpass-dct / refine-mv-type=0 / copy-pic=1 / max-ausize-factor=1.0 / no-dynamic-refine / no-single-sei
Language                                 : English
Default                                  : Yes
Forced                                   : No
Color range                              : Limited
Color primaries                          : BT.709
Transfer characteristics                 : BT.709
Matrix coefficients                      : BT.709

Audio
ID                                       : 2
Format                                   :
Format/Info                              : Digital Theater Systems
Codec ID                                 : A_DTS
Duration                                 : 1 h 38 min
Bit rate mode                            : Constant
Bit rate                                 : 1 510 kb/s
Channel(s)                               : 6 channels
Channel positions                        : Front: L C R, Side: L R, LFE
Sampling rate                            : 48.0 kHz
Frame rate                               : 93.750 FPS (512 SPF)
Bit depth                                : 24 bits
Compression mode                         : Lossy
Delay relative to video                  : 3 ms
Stream size                              : 1.04 GiB (13%)
Title                                    : Original
Language                                 : English
Default                                  : Yes
Forced                                   : No

Text #1
ID                                       : 3
Format                                   : UTF-8
Codec ID                                 : S_TEXT/UTF8
Codec ID/Info                            : UTF-8 Plain Text
Duration                                 : 1 h 33 min
Bit rate                                 : 52 b/s
Count of elements                        : 779
Stream size                              : 35.8 KiB (0%)
Title                                    : Full
Language                                 : Ukrainian
Default                                  : Yes
Forced                                   : Yes

Text #2
ID                                       : 4
Format                                   : UTF-8
Codec ID                                 : S_TEXT/UTF8
Codec ID/Info                            : UTF-8 Plain Text
Duration                                 : 1 h 31 min
Bit rate                                 : 34 b/s
Count of elements                        : 764
Stream size                              : 23.3 KiB (0%)
Title                                    : Full
Language                                 : English
Default                                  : No
Forced                                   : No

Menu
00:00:00.000                             : :Introduction
00:02:48.377                             : :August 18, 1973
00:08:26.923                             : :"They're All Dead"
00:13:25.972                             : :Pit Stop
00:18:05.126                             : :Old Crawford Mill
00:24:03.275                             : :A Short Walk
00:32:38.373                             : :Wrapping Up
00:37:27.162                             : :Vestiges
00:41:24.232                             : :"Bring It!"
00:46:14.105                             : :Detained
00:55:38.418                             : :Face To Face
01:01:01.575                             : :"Poor Sweet Boy"
01:05:47.735                             : :"Finish It"
01:11:40.338                             : :Basement Escape
01:19:24.009                             : :Slaughterhouse
01:26:00.447                             : :Rescue
01:31:49.254                             : :Epilogue
01:32:48.730                             : :End Credits
Світлини




Джерело: &
Особиста оцінка: 0 - не дивився


Срібний реліз (на рейтинг впливає 50% завантаженого)
 Трекер:    Зареєстрований   

Завантажити / скачати фільм українською



відео для новачків



 Зареєстрований:   2019-07-11 06:57
 Розмір:   8.1 GB 
 Оцінка фільму:   -/10 (Голосів: 0)
   
Skovorodkin1985 
Новенький


З нами з: 09.01.15
Востаннє: 30.11.20
Повідомлень: 23

2020-10-19 20:49  
Подивимось на рімейк класики. Дякую.
Ваш часовий пояс: GMT + 2 Години

Нова тема   Відповісти