Шазам! / Shazam! (2019) UHD Remux 4K 2160p HDR H.265 Ukr/Eng | Sub Eng

Нові коментарі

Нова тема   Відповісти
Автор Повідомлення
Anonymous 







2019-07-10 18:41  
Шазам! / Shazam! (2019) UHD Remux 4K 2160p HDR H.265 Ukr/Eng | Sub Eng

Шазам! / Shazam! (2019) UHD Remux 4K 2160p HDR H.265 Ukr/Eng | Sub Eng

Альтернативні постери:




«Просто скажи це слово»



Жанр: бойовик, комедія, пригоди, фентезі
Країна: США



Кінокомпанія: Warner Bros., DC Entertainment, DC Comics
Режисер: Девід Ф. Сандберг
Актори: Закарі Лівай, Ешер Енджел, Джек Грейзер, Марк Стронг, Грейс Фултон, Адам Броді, Джимон Гонсу, Фейті Херман, Міган Гуд, Мішелль Борт

Сюжет:
Тінейджер Біллі Бетсон отримує здатність у разі потреби перетворюватися на дорослого супергероя за допомогою одного чарівного слова.


Тривалість: 02:11:43
Якість: 4K UltraHD Remux 2160p

Відео:
кодек: H.265 (HEVC)
розмір кадру: 3840x2160
бітрейт: 76,7 Мб/с
бітова глибина: 10 біт
кольоровий простір: BT.2020 (HDR)

Аудіо # 1:
мова: українська
переклад: професійний дубльований | студія Postmodern
кодек: 5.1
бітрейт: 384 кб/с
Інформація про дубляж
Переклад: Олег Колесніков
Режисер дубляжу: Анна Пащенко
Звукорежисер: Андрій Жолуденко
Звукорежисер перезапису: Юрій Антонов
Ролі дублювали: Захар Клименко, Володимир Машук, Віктор Григор'єв, Андрій Мостренко, Єлизавета Кучеренко, Світлана Шекера, Олексій Череватенко, Єгор Скороходько, Кирило Нікітенко та інші.

Фільм дубльовано компанією Postmodern.
Аудіо # 2:
мова: англійська
переклад: оригінал
кодек: 5.1
бітрейт: 448 кб/с

Аудіо # 3:
мова: англійська
переклад: оригінал
кодек: TrueHD + Atmos 7.1
бітрейт: 3647 кб/с

Субтитри # 1:
мова: українська
тип: програмні (м'які)| (forced)
формат: *.srt

Субтитри # 2-4:
мова: англійська
тип: програмні (м'які) | (full, SDH, SDH-Colored)
формат: *.srt
Info
Код:
General
Complete name                            : Shazam! (2019) UHD Remux 4K 2160p HDR H.265 (HEVC) [ukr_eng] [ViDeO_Hurtom].
Format                                   :
Format version                           : Version 4
File size                                : 74.8 GiB
Duration                                 : 2 h 11 min
Overall bit rate mode                    : Variable
Overall bit rate                         : 81.3 Mb/s
Movie name                               : Shazam! (2019) UHD Remux 4K 2160p HDR H.265 (HEVC) [UKR_ENG] [ViDeO_Hurtom]
Encoded date                             : UTC 2019-07-28 10:32:42
Writing application                      : v30.1.0 ('Forever And More') 64-bit
Writing library                          : libebml v1.3.6 + v1.4.9

Video
ID                                       : 1
Format                                   : HEVC
Format/Info                              : High Efficiency Video Coding
Commercial name                          : HDR10
Format profile                           : Main [email protected]@High
Codec ID                                 : V_MPEGH/ISO/HEVC
Duration                                 : 2 h 11 min
Bit rate                                 : 76.7 Mb/s
Width                                    : 3 840 pixels
Height                                   : 2 160 pixels
Display aspect ratio                     : 16:9
Frame rate mode                          : Constant
Frame rate                               : 23.976 (24000/1001) FPS
Color space                              : YUV
Chroma subsampling                       : 4:2:0 (Type 2)
Bit depth                                : 10 bits
Bits/(Pixel*Frame)                       : 0.386
Stream size                              : 70.6 GiB (94%)
Language                                 : English
Default                                  : Yes
Forced                                   : No
Color range                              : Limited
Color primaries                          : BT.2020
Transfer characteristics                 : PQ
Matrix coefficients                      : BT.2020 non-constant
Mastering display color primaries        : Display P3
Mastering display luminance              : min: 0.0050 cd/m2, max: 4000 cd/m2
Maximum Content Light Level              : 1351 cd/m2
Maximum Frame-Average Light Level        : 384 cd/m2

Audio #1
ID                                       : 2
Format                                   : AC-3
Format/Info                              : Audio Coding 3
Commercial name                          : Dolby Digital
Codec ID                                 : A_AC3
Duration                                 : 2 h 11 min
Bit rate mode                            : Constant
Bit rate                                 : 384 kb/s
Channel(s)                               : 6 channels
Channel layout                           : L R C LFE Ls Rs
Sampling rate                            : 48.0 kHz
Frame rate                               : 31.250 FPS (1536 SPF)
Bit depth                                : 16 bits
Compression mode                         : Lossy
Stream size                              : 362 MiB (0%)
Title                                    : , 6 ch, 384 Кбт/с
Language                                 : Ukrainian
Service kind                             : Complete Main
Default                                  : Yes
Forced                                   : No

Audio #2
ID                                       : 3
Format                                   : AC-3
Format/Info                              : Audio Coding 3
Commercial name                          : Dolby Digital
Codec ID                                 : A_AC3
Duration                                 : 2 h 11 min
Bit rate mode                            : Constant
Bit rate                                 : 448 kb/s
Channel(s)                               : 6 channels
Channel layout                           : L R C LFE Ls Rs
Sampling rate                            : 48.0 kHz
Frame rate                               : 31.250 FPS (1536 SPF)
Bit depth                                : 16 bits
Compression mode                         : Lossy
Stream size                              : 422 MiB (1%)
Title                                    : , 6 ch, 448 Кбт/с
Language                                 : English
Service kind                             : Complete Main
Default                                  : No
Forced                                   : No

Audio #3
ID                                       : 4
Format                                   : MLP FBA 16-ch
Format/Info                              : Meridian Lossless Packing FBA with 16-channel presentation
Commercial name                          : Dolby TrueHD with Dolby Atmos
Codec ID                                 : A_TRUEHD
Duration                                 : 2 h 11 min
Bit rate mode                            : Variable
Bit rate                                 : 3 645 kb/s
Maximum bit rate                         : 5 931 kb/s
Channel(s)                               : 8 channels
Channel layout                           : L R C LFE Ls Rs Lb Rb
Sampling rate                            : 48.0 kHz
Frame rate                               : 1 200.000 FPS (40 SPF)
Compression mode                         : Lossless
Stream size                              : 3.35 GiB (4%)
Title                                    : TrueHD, 8 ch, 3647 Кбт/с
Language                                 : English
Default                                  : No
Forced                                   : No
Number of dynamic objects                : 15
Bed channel count                        : 1 channel
Bed channel configuration                : LFE

Text #1
ID                                       : 5
Format                                   : UTF-8
Codec ID                                 : S_TEXT/UTF8
Codec ID/Info                            : UTF-8 Plain Text
Duration                                 : 2 h 10 min
Bit rate                                 : 2 b/s
Count of elements                        : 66
Stream size                              : 2.70 KiB (0%)
Title                                    : Forced
Language                                 : Ukrainian
Default                                  : Yes
Forced                                   : No

Text #2
ID                                       : 6
Format                                   : UTF-8
Codec ID                                 : S_TEXT/UTF8
Codec ID/Info                            : UTF-8 Plain Text
Duration                                 : 2 h 10 min
Bit rate                                 : 52 b/s
Count of elements                        : 1728
Stream size                              : 49.9 KiB (0%)
Title                                    : Full
Language                                 : English
Default                                  : No
Forced                                   : No

Text #3
ID                                       : 7
Format                                   : UTF-8
Codec ID                                 : S_TEXT/UTF8
Codec ID/Info                            : UTF-8 Plain Text
Duration                                 : 2 h 10 min
Bit rate                                 : 64 b/s
Count of elements                        : 2182
Stream size                              : 61.7 KiB (0%)
Title                                    : SDH
Language                                 : English
Default                                  : No
Forced                                   : No

Text #4
ID                                       : 8
Format                                   : UTF-8
Codec ID                                 : S_TEXT/UTF8
Codec ID/Info                            : UTF-8 Plain Text
Duration                                 : 2 h 11 min
Bit rate                                 : 94 b/s
Count of elements                        : 2155
Stream size                              : 90.7 KiB (0%)
Title                                    : SDH Colored
Language                                 : English
Default                                  : No
Forced                                   : No

Menu
00:00:00.000                             : en:00:00:00.000
00:08:18.790                             : en:00:08:18.790
00:15:11.285                             : en:00:15:11.285
00:25:22.396                             : en:00:25:22.396
00:31:57.624                             : en:00:31:57.624
00:39:00.255                             : en:00:39:00.255
00:50:07.713                             : en:00:50:07.713
01:01:28.810                             : en:01:01:28.810
01:08:51.502                             : en:01:08:51.502
01:16:40.471                             : en:01:16:40.471
01:24:29.356                             : en:01:24:29.356
01:34:00.677                             : en:01:34:00.677
01:43:01.175                             : en:01:43:01.175
01:52:53.850                             : en:01:52:53.850
02:00:44.446                             : en:02:00:44.446
Скріншоти




Джерело: &
Особиста оцінка: 6 - третій сорт - не брак
Увага! Перед завантаженням переконайтесь, що ваш пристрій відтворення (та/або ПЗ) підтримує H.265 (HEVC)


Золотий реліз (завантажене не впливає на рейтинг)
 Трекер:    Зареєстрований   

Завантажити / скачати фільм українською



відео для новачків



 Зареєстрований:   2019-07-28 15:13
 Розмір:   74.79 GB 
 Оцінка фільму:   8.5/10 (Голосів: 19)
   
Інші релізи
   Шазам! / Shazam! (2019) surikmas  9 / 0   790 MB   2019-08-02 11:18 
   Шазам! / Shazam! (2019) 1080p Ukr/Eng | Sub Eng staf777  23 / 0   10.14 GB   2019-07-31 20:39 
   Шазам! / Shazam! (2019) Ukr/Eng | Sub Eng igor911  16 / 0   2.18 GB   2019-07-28 21:26 
   Шазам! / Shazam! (2019) Remux 1080p Ukr/Eng | Sub Eng kryk-v.ya.  14 / 0   27.25 GB   2019-07-28 20:27 
   Шазам! / Shazam! (2019) AVC Ukr/Eng | Sub Eng 11FrYkT  27 / 0   2.44 GB   2019-07-28 11:17 
   Шазам! / Shazam! (2019) 720p Ukr/Eng | Sub Eng 11FrYkT  37 / 3   5.7 GB   2019-07-28 11:01 
   Шазам! / Shazam! (2019) igor911  88 / 0   1.46 GB   2019-07-10 15:38 
bot 
робот


З нами з: 30.09.07
Востаннє: 26.05.05
Повідомлень: 21799

2019-07-11 15:29  
Тему перенесено з Анонси релізів до форуму Фільми в HD


antik_2008

sDob 
Новенький


З нами з: 19.01.16
Востаннє: 23.08.19
Повідомлень: 20

2019-07-11 16:14  
актуальна imdb 7.3/10 (135,049)
LastExile 
Новенький


З нами з: 25.09.10
Востаннє: 23.08.19
Повідомлень: 19

2019-07-18 23:36  
Хлопці, а можна якось так не робити український звук в цьому форматі?
У мене Plex на Xbox One X його не любить і глючить...

ngxwinger 
Частий відвідувач


З нами з: 19.01.14
Востаннє: 23.08.19
Повідомлень: 45

2019-07-20 17:30  
Дійсно десь на 6 з 10 максимум, було декілька веселих моментів, проте нічого особливо цікавого.
armogun 
Попереджень: 1
Попереджень: 1 


З нами з: 04.05.13
Востаннє: 20.08.19
Повідомлень: 527

2019-07-21 10:10  
Тупенький фільм. Ріп норм 6\10
LastExile 
Новенький


З нами з: 25.09.10
Востаннє: 23.08.19
Повідомлень: 19

2019-07-23 00:40  
armogun
Вам тоді у арт відділ. і 50 котиків.
ЯК на DC -нормальний сімейний фільм.

Anonymous 







2019-07-28 15:14  
28.07.2019 Роздачу оновлено


Замінив доріжку на 5.1 @ 384 kbps



Ваш часовий пояс: GMT + 2 Години

Нова тема   Відповісти