Майбутній король / The Kid Who Would Be King (2019) UHD Remux 4K 2160p HDR H.265 Ukr/Eng | Sub Ukr/Eng

Нові коментарі

Нова тема   Відповісти
Автор Повідомлення
Anonymous 







2019-07-10 18:23  
Майбутній король / The Kid Who Would Be King (2019) UHD Remux 4K 2160p HDR H.265 Ukr/Eng | Sub Ukr/Eng

Майбутній король / The Kid Who Would Be King (2019) UHD Remux 4K 2160p HDR H.265 Ukr/Eng | Sub Ukr/Eng
Альтернативний постер:

Майбутній король / The Kid Who Would Be King (2019) UHD Remux 4K 2160p HDR H.265 Ukr/Eng | Sub Ukr/Eng


Жанр: бойовик, пригодницький, сімейний, фентезі
Країна: Велика Британія



Кінокомпанія: Big Talk Productions, Working Title Films
Режисер: Джо Корніш
Актори: Луїс Ешборн Серкіс, Деніс Гоф, Том Тейлор, Нейтан Стюарт-Джарретт, Ребекка Фергюсон, Енгус Імрі, Патрік Стюарт та інші

Сюжет:
Нічим не примітний хлопчик Алекс ходить у школу та мріє про панування справедливості. Але життя зовсім не таке, як хотілося б. І захистити тих, кого ображають інші, не так вже й легко. Та якось Алекс випадково натрапляє на закинуту споруду, де серед груди каміння знаходить меч, що видніється із каменя. З легкістю його діставши, Алекс приносить знахідку додому. Лише з часом стає зрозуміло, що це і є легендарний Екскалібур. Тепер мрія хлопця здійсниться – йому доведеться битися зі злою Морганою, яка прагне знищити світ.


Тривалість: 02:00:08
Якість: 4K UltraHD Remux 2160p
Відео:
кодек: H.265 (HEVC)
розмір кадру: 3840x2160
бітрейт: 48,3 мб/с
бітова глибина: 10 біт
кольоровий простір: BT.2020 (HDR)

Аудіо # 1:
мова: українська
переклад: професійний дубльований
кодек: 5.1
бітрейт: 448 кб/с

Аудіо # 2:
мова: англійська
переклад: оригінал
кодек: 5.1
бітрейт: 640 кб/с

Аудіо # 3:
мова: англійська
переклад: оригінал
кодек: TrueHD 7.1
бітрейт: 4449 кб/с

Субтитри (Forced, Full):
мова: українська
тип: програмні (м'які)
формат: *.srt

Субтитри (Full, SDH):
мова: англійська
тип: програмні (м'які)
формат: *.srt
Info
Код:
General
Complete name                            : The Kid Who Would Be King (2019) UHD Remux 4K 2160p HDR H.265 (HEVC) [UKR_ENG] [ViDeO_Hurtom].
Format                                   :
Format version                           : Version 4
File size                                : 45.2 GiB
Duration                                 : 2 h 0 min
Overall bit rate mode                    : Variable
Overall bit rate                         : 53.9 Mb/s
Movie name                               : The Kid Who Would Be King (2019) UHD Remux 4K 2160p HDR H.265 (HEVC) [UKR_ENG] [ViDeO_Hurtom]
Encoded date                             : UTC 2019-07-10 11:51:21
Writing application                      : v30.1.0 ('Forever And More') 64-bit
Writing library                          : libebml v1.3.6 + v1.4.9

Video
ID                                       : 1
Format                                   : HEVC
Format/Info                              : High Efficiency Video Coding
Commercial name                          : HDR10
Format profile                           : Main [email protected]@High
Codec ID                                 : V_MPEGH/ISO/HEVC
Duration                                 : 2 h 0 min
Bit rate                                 : 48.3 Mb/s
Width                                    : 3 840 pixels
Height                                   : 2 160 pixels
Display aspect ratio                     : 16:9
Frame rate mode                          : Constant
Frame rate                               : 23.976 (24000/1001) FPS
Color space                              : YUV
Chroma subsampling                       : 4:2:0 (Type 2)
Bit depth                                : 10 bits
Bits/(Pixel*Frame)                       : 0.243
Stream size                              : 40.5 GiB (90%)
Language                                 : English
Default                                  : Yes
Forced                                   : No
Color range                              : Limited
Color primaries                          : BT.2020
Transfer characteristics                 : PQ
Matrix coefficients                      : BT.2020 non-constant
Mastering display color primaries        : Display P3
Mastering display luminance              : min: 0.0050 cd/m2, max: 1000 cd/m2

Audio #1
ID                                       : 2
Format                                   : AC-3
Format/Info                              : Audio Coding 3
Commercial name                          : Dolby Digital
Codec ID                                 : A_AC3
Duration                                 : 2 h 0 min
Bit rate mode                            : Constant
Bit rate                                 : 448 kb/s
Channel(s)                               : 6 channels
Channel layout                           : L R C LFE Ls Rs
Sampling rate                            : 48.0 kHz
Frame rate                               : 31.250 FPS (1536 SPF)
Bit depth                                : 16 bits
Compression mode                         : Lossy
Stream size                              : 385 MiB (1%)
Title                                    : , 6 ch, 448 Кбт/с
Language                                 : Ukrainian
Service kind                             : Complete Main
Default                                  : Yes
Forced                                   : No

Audio #2
ID                                       : 3
Format                                   : AC-3
Format/Info                              : Audio Coding 3
Commercial name                          : Dolby Digital
Codec ID                                 : A_AC3
Duration                                 : 2 h 0 min
Bit rate mode                            : Constant
Bit rate                                 : 640 kb/s
Channel(s)                               : 6 channels
Channel layout                           : L R C LFE Ls Rs
Sampling rate                            : 48.0 kHz
Frame rate                               : 31.250 FPS (1536 SPF)
Bit depth                                : 16 bits
Compression mode                         : Lossy
Stream size                              : 550 MiB (1%)
Title                                    : , 6 ch, 640 Кбт/с
Language                                 : English
Service kind                             : Complete Main
Default                                  : No
Forced                                   : No

Audio #3
ID                                       : 4
Format                                   : MLP FBA 16-ch
Format/Info                              : Meridian Lossless Packing FBA with 16-channel presentation
Commercial name                          : Dolby TrueHD with Dolby Atmos
Codec ID                                 : A_TRUEHD
Duration                                 : 2 h 0 min
Bit rate mode                            : Variable
Bit rate                                 : 4 449 kb/s
Maximum bit rate                         : 8 607 kb/s
Channel(s)                               : 8 channels
Channel layout                           : L R C LFE Ls Rs Lb Rb
Sampling rate                            : 48.0 kHz
Frame rate                               : 1 200.000 FPS (40 SPF)
Compression mode                         : Lossless
Stream size                              : 3.73 GiB (8%)
Title                                    : TrueHD, 8 ch, 4449 Кбт/с
Language                                 : English
Default                                  : No
Forced                                   : No
Number of dynamic objects                : 13
Bed channel count                        : 1 channel
Bed channel configuration                : LFE

Text #1
ID                                       : 5
Format                                   : UTF-8
Codec ID                                 : S_TEXT/UTF8
Codec ID/Info                            : UTF-8 Plain Text
Duration                                 : 1 h 59 min
Bit rate                                 : 0 b/s
Count of elements                        : 17
Stream size                              : 642 Bytes (0%)
Title                                    : Forced
Language                                 : Ukrainian
Default                                  : Yes
Forced                                   : No

Text #2
ID                                       : 6
Format                                   : UTF-8
Codec ID                                 : S_TEXT/UTF8
Codec ID/Info                            : UTF-8 Plain Text
Duration                                 : 1 h 59 min
Bit rate                                 : 81 b/s
Count of elements                        : 1604
Stream size                              : 71.2 KiB (0%)
Title                                    : Full
Language                                 : Ukrainian
Default                                  : No
Forced                                   : No

Text #3
ID                                       : 7
Format                                   : UTF-8
Codec ID                                 : S_TEXT/UTF8
Codec ID/Info                            : UTF-8 Plain Text
Duration                                 : 1 h 59 min
Bit rate                                 : 51 b/s
Count of elements                        : 1640
Stream size                              : 45.2 KiB (0%)
Title                                    : Full
Language                                 : English
Default                                  : No
Forced                                   : No

Text #4
ID                                       : 8
Format                                   : UTF-8
Codec ID                                 : S_TEXT/UTF8
Codec ID/Info                            : UTF-8 Plain Text
Duration                                 : 1 h 59 min
Bit rate                                 : 62 b/s
Count of elements                        : 2010
Stream size                              : 54.6 KiB (0%)
Title                                    : SDH
Language                                 : English
Default                                  : No
Forced                                   : No

Menu
00:00:00.000                             : en:Chapter 1
00:06:30.015                             : en:Chapter 2
00:11:41.200                             : en:Chapter 3
00:15:52.869                             : en:Chapter 4
00:20:21.762                             : en:Chapter 5
00:27:00.410                             : en:Chapter 6
00:34:03.959                             : en:Chapter 7
00:40:08.239                             : en:Chapter 8
00:43:21.182                             : en:Chapter 9
00:47:42.735                             : en:Chapter 10
00:55:36.291                             : en:Chapter 11
00:59:38.325                             : en:Chapter 12
01:06:51.216                             : en:Chapter 13
01:11:45.551                             : en:Chapter 14
01:17:40.614                             : en:Chapter 15
01:21:47.903                             : en:Chapter 16
01:25:25.537                             : en:Chapter 17
01:27:57.772                             : en:Chapter 18
01:31:37.033                             : en:Chapter 19
01:33:56.881                             : en:Chapter 20
01:38:30.780                             : en:Chapter 21
01:44:10.995                             : en:Chapter 22
01:50:55.357                             : en:Chapter 23
01:53:32.848                             : en:Chapter 24
Скріншоти




Джерело: &
Особиста оцінка: 7 - моїй подрузі не сподобалося


Золотий реліз (завантажене не впливає на рейтинг)
 Трекер:    Зареєстрований   

Завантажити / скачати фільм українською



відео для новачків



 Зареєстрований:   2019-07-10 18:23
 Розмір:   45.21 GB 
 Оцінка фільму:   6.4/10 (Голосів: 7)
   
Anonymous 







2019-07-16 23:46  
На один раз кіно.
Ваш часовий пояс: GMT + 2 Години

Нова тема   Відповісти